  0
SECTION
  2
HEADER
  9
$ACADVER
  1
AC1021
  9
$ACADMAINTVER
 70
    50
  9
$DWGCODEPAGE
  3
ANSI_936
  9
$LASTSAVEDBY
  1
stephanie
  9
$INSBASE
 10
0.0
 20
0.0
 30
0.0
  9
$EXTMIN
 10
784.1985789357949
 20
762.5681181599546
 30
-0.0015258207003583
  9
$EXTMAX
 10
824.2555514626774
 20
845.0943430145633
 30
0.0000000349246037
  9
$LIMMIN
 10
0.0
 20
0.0
  9
$LIMMAX
 10
12.0
 20
9.0
  9
$ORTHOMODE
 70
     1
  9
$REGENMODE
 70
     1
  9
$FILLMODE
 70
     1
  9
$QTEXTMODE
 70
     0
  9
$MIRRTEXT
 70
     0
  9
$LTSCALE
 40
1.0
  9
$ATTMODE
 70
     1
  9
$TEXTSIZE
 40
0.2
  9
$TRACEWID
 40
0.05
  9
$TEXTSTYLE
  7
STANDARD
  9
$CLAYER
  8
标注
  9
$CELTYPE
  6
ByLayer
  9
$CECOLOR
 62
   256
  9
$CELTSCALE
 40
1.0
  9
$DISPSILH
 70
     0
  9
$DIMSCALE
 40
1.0
  9
$DIMASZ
 40
0.65
  9
$DIMEXO
 40
0.88
  9
$DIMDLI
 40
0.015
  9
$DIMRND
 40
0.0
  9
$DIMDLE
 40
0.0
  9
$DIMEXE
 40
0.32
  9
$DIMTP
 40
0.0
  9
$DIMTM
 40
0.0
  9
$DIMTXT
 40
0.65
  9
$DIMCEN
 40
0.09
  9
$DIMTSZ
 40
0.0
  9
$DIMTOL
 70
     0
  9
$DIMLIM
 70
     0
  9
$DIMTIH
 70
     0
  9
$DIMTOH
 70
     0
  9
$DIMSE1
 70
     0
  9
$DIMSE2
 70
     0
  9
$DIMTAD
 70
     0
  9
$DIMZIN
 70
     8
  9
$DIMBLK
  1

  9
$DIMASO
 70
     1
  9
$DIMSHO
 70
     1
  9
$DIMPOST
  1
"
  9
$DIMAPOST
  1
"
  9
$DIMALT
 70
     0
  9
$DIMALTD
 70
     1
  9
$DIMALTF
 40
0.03937
  9
$DIMLFAC
 40
1.0
  9
$DIMTOFL
 70
     1
  9
$DIMTVP
 40
0.0
  9
$DIMTIX
 70
     0
  9
$DIMSOXD
 70
     0
  9
$DIMSAH
 70
     0
  9
$DIMBLK1
  1

  9
$DIMBLK2
  1

  9
$DIMSTYLE
  2
副本STANDARD
  9
$DIMCLRD
 70
   256
  9
$DIMCLRE
 70
   256
  9
$DIMCLRT
 70
   256
  9
$DIMTFAC
 40
1.0
  9
$DIMGAP
 40
0.3
  9
$DIMJUST
 70
     0
  9
$DIMSD1
 70
     0
  9
$DIMSD2
 70
     0
  9
$DIMTOLJ
 70
     1
  9
$DIMTZIN
 70
     8
  9
$DIMALTZ
 70
     8
  9
$DIMALTTZ
 70
     8
  9
$DIMUPT
 70
     0
  9
$DIMDEC
 70
     3
  9
$DIMTDEC
 70
     3
  9
$DIMALTU
 70
     2
  9
$DIMALTTD
 70
     1
  9
$DIMTXSTY
  7
STANDARD
  9
$DIMAUNIT
 70
     0
  9
$DIMADEC
 70
     0
  9
$DIMALTRND
 40
0.0
  9
$DIMAZIN
 70
     0
  9
$DIMDSEP
 70
    46
  9
$DIMATFIT
 70
     3
  9
$DIMFRAC
 70
     2
  9
$DIMLDRBLK
  1

  9
$DIMLUNIT
 70
     5
  9
$DIMLWD
 70
    -2
  9
$DIMLWE
 70
    -2
  9
$DIMTMOVE
 70
     2
  9
$DIMFXL
 40
8.0
  9
$DIMFXLON
 70
     0
  9
$DIMJOGANG
 40
1.570796326794896
  9
$DIMTFILL
 70
     0
  9
$DIMTFILLCLR
 70
     0
  9
$DIMARCSYM
 70
     0
  9
$DIMLTYPE
  6
CONTINUOUS
  9
$DIMLTEX1
  6
CONTINUOUS
  9
$DIMLTEX2
  6
CONTINUOUS
  9
$LUNITS
 70
     2
  9
$LUPREC
 70
     4
  9
$SKETCHINC
 40
0.1
  9
$FILLETRAD
 40
0.0
  9
$AUNITS
 70
     0
  9
$AUPREC
 70
     0
  9
$MENU
  1
.
  9
$ELEVATION
 40
0.0
  9
$PELEVATION
 40
0.0
  9
$THICKNESS
 40
0.0
  9
$LIMCHECK
 70
     0
  9
$CHAMFERA
 40
0.0
  9
$CHAMFERB
 40
0.0
  9
$CHAMFERC
 40
0.0
  9
$CHAMFERD
 40
0.0
  9
$SKPOLY
 70
     0
  9
$TDCREATE
 40
2455434.724808658
  9
$TDUCREATE
 40
2455434.391475324
  9
$TDUPDATE
 40
2458690.756531933
  9
$TDUUPDATE
 40
2458690.423198599
  9
$TDINDWG
 40
0.5907530671
  9
$TDUSRTIMER
 40
0.5907357755
  9
$USRTIMER
 70
     1
  9
$ANGBASE
 50
0.0
  9
$ANGDIR
 70
     0
  9
$PDMODE
 70
     0
  9
$PDSIZE
 40
0.0
  9
$PLINEWID
 40
0.0
  9
$SPLFRAME
 70
     0
  9
$SPLINETYPE
 70
     6
  9
$SPLINESEGS
 70
     8
  9
$HANDSEED
  5
809A
  9
$SURFTAB1
 70
     6
  9
$SURFTAB2
 70
     6
  9
$SURFTYPE
 70
     6
  9
$SURFU
 70
     6
  9
$SURFV
 70
     6
  9
$UCSBASE
  2

  9
$UCSNAME
  2

  9
$UCSORG
 10
0.0
 20
0.0
 30
0.0
  9
$UCSXDIR
 10
1.0
 20
0.0
 30
0.0
  9
$UCSYDIR
 10
0.0
 20
1.0
 30
0.0
  9
$UCSORTHOREF
  2

  9
$UCSORTHOVIEW
 70
     0
  9
$UCSORGTOP
 10
0.0
 20
0.0
 30
0.0
  9
$UCSORGBOTTOM
 10
0.0
 20
0.0
 30
0.0
  9
$UCSORGLEFT
 10
0.0
 20
0.0
 30
0.0
  9
$UCSORGRIGHT
 10
0.0
 20
0.0
 30
0.0
  9
$UCSORGFRONT
 10
0.0
 20
0.0
 30
0.0
  9
$UCSORGBACK
 10
0.0
 20
0.0
 30
0.0
  9
$PUCSBASE
  2

  9
$PUCSNAME
  2

  9
$PUCSORG
 10
0.0
 20
0.0
 30
0.0
  9
$PUCSXDIR
 10
1.0
 20
0.0
 30
0.0
  9
$PUCSYDIR
 10
0.0
 20
1.0
 30
0.0
  9
$PUCSORTHOREF
  2

  9
$PUCSORTHOVIEW
 70
     0
  9
$PUCSORGTOP
 10
0.0
 20
0.0
 30
0.0
  9
$PUCSORGBOTTOM
 10
0.0
 20
0.0
 30
0.0
  9
$PUCSORGLEFT
 10
0.0
 20
0.0
 30
0.0
  9
$PUCSORGRIGHT
 10
0.0
 20
0.0
 30
0.0
  9
$PUCSORGFRONT
 10
0.0
 20
0.0
 30
0.0
  9
$PUCSORGBACK
 10
0.0
 20
0.0
 30
0.0
  9
$USERI1
 70
     0
  9
$USERI2
 70
     0
  9
$USERI3
 70
     0
  9
$USERI4
 70
     0
  9
$USERI5
 70
     0
  9
$USERR1
 40
0.0
  9
$USERR2
 40
0.0
  9
$USERR3
 40
0.0
  9
$USERR4
 40
0.0
  9
$USERR5
 40
2.5
  9
$WORLDVIEW
 70
     1
  9
$SHADEDGE
 70
     3
  9
$SHADEDIF
 70
    70
  9
$TILEMODE
 70
     1
  9
$MAXACTVP
 70
    64
  9
$PINSBASE
 10
0.0
 20
0.0
 30
0.0
  9
$PLIMCHECK
 70
     0
  9
$PEXTMIN
 10
1.000000000000000E+20
 20
1.000000000000000E+20
 30
1.000000000000000E+20
  9
$PEXTMAX
 10
-1.000000000000000E+20
 20
-1.000000000000000E+20
 30
-1.000000000000000E+20
  9
$PLIMMIN
 10
0.0
 20
0.0
  9
$PLIMMAX
 10
12.0
 20
9.0
  9
$UNITMODE
 70
     0
  9
$VISRETAIN
 70
     1
  9
$PLINEGEN
 70
     0
  9
$PSLTSCALE
 70
     1
  9
$TREEDEPTH
 70
  3020
  9
$CMLSTYLE
  2
Standard
  9
$CMLJUST
 70
     0
  9
$CMLSCALE
 40
1.0
  9
$PROXYGRAPHICS
 70
     1
  9
$MEASUREMENT
 70
     0
  9
$CELWEIGHT
370
    -1
  9
$ENDCAPS
280
     0
  9
$JOINSTYLE
280
     0
  9
$LWDISPLAY
290
     0
  9
$INSUNITS
 70
     0
  9
$HYPERLINKBASE
  1

  9
$STYLESHEET
  1

  9
$XEDIT
290
     1
  9
$CEPSNTYPE
380
     0
  9
$PSTYLEMODE
290
     1
  9
$FINGERPRINTGUID
  2
{7BAC09DB-C4D0-41DB-8C07-4C6808ADD930}
  9
$VERSIONGUID
  2
{1163E66D-5307-438E-80FE-9D174600641D}
  9
$EXTNAMES
290
     1
  9
$PSVPSCALE
 40
0.0
  9
$OLESTARTUP
290
     0
  9
$SORTENTS
280
   127
  9
$INDEXCTL
280
     0
  9
$HIDETEXT
280
     0
  9
$XCLIPFRAME
290
     0
  9
$HALOGAP
280
     0
  9
$OBSCOLOR
 70
   257
  9
$OBSLTYPE
280
     0
  9
$INTERSECTIONDISPLAY
280
     0
  9
$INTERSECTIONCOLOR
 70
   257
  9
$DIMASSOC
280
     1
  9
$PROJECTNAME
  1

  9
$CAMERADISPLAY
290
     0
  9
$LENSLENGTH
 40
50.0
  9
$CAMERAHEIGHT
 40
0.0
  9
$STEPSPERSEC
 40
2.0
  9
$STEPSIZE
 40
6.0
  9
$3DDWFPREC
 40
2.0
  9
$PSOLWIDTH
 40
0.25
  9
$PSOLHEIGHT
 40
4.0
  9
$LOFTANG1
 40
1.570796326794896
  9
$LOFTANG2
 40
1.570796326794896
  9
$LOFTMAG1
 40
0.0
  9
$LOFTMAG2
 40
0.0
  9
$LOFTPARAM
 70
     7
  9
$LOFTNORMALS
280
     1
  9
$LATITUDE
 40
37.795
  9
$LONGITUDE
 40
-122.394
  9
$NORTHDIRECTION
 40
0.0
  9
$TIMEZONE
 70
 -8000
  9
$LIGHTGLYPHDISPLAY
280
     1
  9
$TILEMODELIGHTSYNCH
280
     1
  9
$CMATERIAL
347
5F0B
  9
$SOLIDHIST
280
     0
  9
$SHOWHIST
280
     1
  9
$DWFFRAME
280
     2
  9
$DGNFRAME
280
     0
  9
$REALWORLDSCALE
290
     1
  9
$INTERFERECOLOR
 62
     1
  9
$INTERFEREOBJVS
345
5F2D
  9
$INTERFEREVPVS
346
8048
  9
$CSHADOW
280
     0
  9
$SHADOWPLANELOCATION
 40
0.0
  0
ENDSEC
  0
SECTION
  2
CLASSES
  0
CLASS
  1
ACDBDICTIONARYWDFLT
  2
AcDbDictionaryWithDefault
  3
ObjectDBX Classes
 90
        0
 91
        1
280
     0
281
     0
  0
CLASS
  1
MATERIAL
  2
AcDbMaterial
  3
ObjectDBX Classes
 90
     1153
 91
        3
280
     0
281
     0
  0
CLASS
  1
VISUALSTYLE
  2
AcDbVisualStyle
  3
ObjectDBX Classes
 90
     4095
 91
       26
280
     0
281
     0
  0
CLASS
  1
SCALE
  2
AcDbScale
  3
ObjectDBX Classes
 90
     1153
 91
       33
280
     0
281
     0
  0
CLASS
  1
TABLESTYLE
  2
AcDbTableStyle
  3
ObjectDBX Classes
 90
     4095
 91
        1
280
     0
281
     0
  0
CLASS
  1
MLEADERSTYLE
  2
AcDbMLeaderStyle
  3
ACDB_MLEADERSTYLE_CLASS
 90
     4095
 91
        1
280
     0
281
     0
  0
CLASS
  1
VLO-VL
  2
vlo_VL
  3
VL|AutoLISP based application
 90
      129
 91
        1
280
     0
281
     0
  0
CLASS
  1
DICTIONARYVAR
  2
AcDbDictionaryVar
  3
ObjectDBX Classes
 90
        0
 91
       12
280
     0
281
     0
  0
CLASS
  1
CELLSTYLEMAP
  2
AcDbCellStyleMap
  3
ObjectDBX Classes
 90
     1152
 91
        2
280
     0
281
     0
  0
CLASS
  1
DIMASSOC
  2
AcDbDimAssoc
  3
"AcDbDimAssoc|Product Desc:     AcDim ARX App For Dimension|Company:          Autodesk, Inc.|WEB Address:      www.autodesk.com"
 90
        0
 91
        0
280
     0
281
     0
  0
CLASS
  1
SORTENTSTABLE
  2
AcDbSortentsTable
  3
ObjectDBX Classes
 90
        0
 91
        1
280
     0
281
     0
  0
CLASS
  1
ACDBPLACEHOLDER
  2
AcDbPlaceHolder
  3
ObjectDBX Classes
 90
        0
 91
        1
280
     0
281
     0
  0
CLASS
  1
LAYOUT
  2
AcDbLayout
  3
ObjectDBX Classes
 90
        0
 91
        2
280
     0
281
     0
  0
CLASS
  1
ACDBSECTIONVIEWSTYLE
  2
AcDbSectionViewStyle
  3
ObjectDBX Classes
 90
     1025
 91
        1
280
     0
281
     0
  0
CLASS
  1
ACDBDETAILVIEWSTYLE
  2
AcDbDetailViewStyle
  3
ObjectDBX Classes
 90
     1025
 91
        1
280
     0
281
     0
  0
ENDSEC
  0
SECTION
  2
TABLES
  0
TABLE
  2
VPORT
  5
5F02
330
0
100
AcDbSymbolTable
 70
     1
  0
VPORT
  5
5F73
330
5F02
100
AcDbSymbolTableRecord
100
AcDbViewportTableRecord
  2
*ACTIVE
 70
     0
 10
0.0
 20
0.0
 11
1.0
 21
1.0
 12
804.2270651992362
 22
803.8312305872588
 13
0.0
 23
0.0
 14
0.5
 24
0.5
 15
0.5
 25
0.5
 16
0.0
 26
0.0
 36
1.0
 17
0.0
 27
0.0
 37
0.0
 40
83.50094404580477
 41
2.64102564102564
 42
50.0
 43
0.0
 44
0.0
 50
0.0
 51
0.0
 71
     0
 72
  1000
 73
     1
 74
     3
 75
     0
 76
     0
 77
     0
 78
     0
281
     0
 65
     1
110
0.0
120
0.0
130
0.0
111
1.0
121
0.0
131
0.0
112
0.0
122
1.0
132
0.0
 79
     0
146
0.0
348
5F29
 60
     3
 61
     5
292
     1
282
     1
141
0.0
142
0.0
 63
   250
421
  3355443
1001
ACAD_NAV_VCDISPLAY
1070
     3
  0
ENDTAB
  0
TABLE
  2
LTYPE
  5
5EFF
330
0
100
AcDbSymbolTable
 70
     4
  0
LTYPE
  5
5F5C
330
5EFF
100
AcDbSymbolTableRecord
100
AcDbLinetypeTableRecord
  2
ByBlock
 70
     0
  3

 72
    65
 73
     0
 40
0.0
  0
LTYPE
  5
5F5D
330
5EFF
100
AcDbSymbolTableRecord
100
AcDbLinetypeTableRecord
  2
ByLayer
 70
     0
  3

 72
    65
 73
     0
 40
0.0
  0
LTYPE
  5
5F5E
330
5EFF
100
AcDbSymbolTableRecord
100
AcDbLinetypeTableRecord
  2
CONTINUOUS
 70
     0
  3
Solid line
 72
    65
 73
     0
 40
0.0
  0
LTYPE
  5
5F74
330
5EFF
100
AcDbSymbolTableRecord
100
AcDbLinetypeTableRecord
  2
CENTER2
 70
     0
  3
Center (.5x) ___ _ ___ _ ___ _ ___ _ ___ _ ___
 72
    65
 73
     4
 40
28.575
 49
19.05
 74
     0
 49
-3.174999999999998
 74
     0
 49
3.174999999999998
 74
     0
 49
-3.174999999999998
 74
     0
  0
LTYPE
  5
5F75
330
5EFF
100
AcDbSymbolTableRecord
100
AcDbLinetypeTableRecord
  2
HIDDEN2
 70
     0
  3
Hidden (.5x) _ _ _ _ _ _ _ _ _ _ _ _ _ _ _ _ _
 72
    65
 73
     2
 40
4.762499999999998
 49
3.174999999999998
 74
     0
 49
-1.587499999999999
 74
     0
  0
LTYPE
  5
7D79
330
5EFF
100
AcDbSymbolTableRecord
100
AcDbLinetypeTableRecord
  2
ACAD_ISO02W100
 70
     0
  3
ISO dash __ __ __ __ __ __ __ __ __ __ __ __ __
 72
    65
 73
     2
 40
15.0
 49
12.0
 74
     0
 49
-3.0
 74
     0
  0
ENDTAB
  0
TABLE
  2
LAYER
  5
5EFC
102
{ACAD_XDICTIONARY
360
61B7
102
}
330
0
100
AcDbSymbolTable
 70
     8
  0
LAYER
  5
5F56
102
{ACAD_XDICTIONARY
360
60F4
102
}
330
5EFC
100
AcDbSymbolTableRecord
100
AcDbLayerTableRecord
  2
0
 70
     0
 62
     7
  6
CONTINUOUS
370
    -3
390
5F09
347
5F1B
  0
LAYER
  5
5F72
102
{ACAD_XDICTIONARY
360
60F6
102
}
330
5EFC
100
AcDbSymbolTableRecord
100
AcDbLayerTableRecord
  2
标注
 70
     0
 62
    80
  6
CONTINUOUS
370
    -3
390
5F09
347
5F1B
  0
LAYER
  5
5F7D
102
{ACAD_XDICTIONARY
360
60F8
102
}
330
5EFC
100
AcDbSymbolTableRecord
100
AcDbLayerTableRecord
  2
中心线
 70
     0
 62
     1
  6
CENTER2
370
    -3
390
5F09
347
5F1B
  0
LAYER
  5
5F7E
102
{ACAD_XDICTIONARY
360
60FA
102
}
330
5EFC
100
AcDbSymbolTableRecord
100
AcDbLayerTableRecord
  2
虚线
 70
     0
 62
     4
  6
HIDDEN2
370
    -3
390
5F09
347
5F1B
  0
LAYER
  5
5F7F
330
5EFC
100
AcDbSymbolTableRecord
100
AcDbLayerTableRecord
  2
DEFPOINTS
 70
     0
 62
     7
  6
CONTINUOUS
290
     0
370
    -3
390
5F09
347
5F1B
  0
LAYER
  5
7BC1
102
{ACAD_XDICTIONARY
360
7BC2
102
}
330
5EFC
100
AcDbSymbolTableRecord
100
AcDbLayerTableRecord
  2
细实线
 70
     0
 62
     7
  6
CONTINUOUS
370
     9
390
5F09
347
5F1B
  0
LAYER
  5
7D7A
330
5EFC
100
AcDbSymbolTableRecord
100
AcDbLayerTableRecord
  2
标注线
 70
     0
 62
     3
  6
CONTINUOUS
370
     9
390
5F09
347
5F1B
  0
LAYER
  5
7D7B
102
{ACAD_XDICTIONARY
360
7D7C
102
}
330
5EFC
100
AcDbSymbolTableRecord
100
AcDbLayerTableRecord
  2
粗实线
 70
     0
 62
     7
  6
CONTINUOUS
370
     9
390
5F09
347
5F1B
1001
ACAECLAYERSTANDARD
1000

1000

  0
ENDTAB
  0
TABLE
  2
STYLE
  5
5EFD
330
0
100
AcDbSymbolTable
 70
     2
  0
STYLE
  5
5F57
330
5EFD
100
AcDbSymbolTableRecord
100
AcDbTextStyleTableRecord
  2
STANDARD
 70
     0
 40
0.0
 41
1.0
 50
0.0
 71
     0
 42
0.2
  3
arial.ttf
  4

1001
ACAD
1000
Arial
1071
       34
  0
STYLE
  5
7D7D
330
5EFD
100
AcDbSymbolTableRecord
100
AcDbTextStyleTableRecord
  2
Arial
 70
     0
 40
0.0
 41
1.0
 50
0.0
 71
     0
 42
2.5
  3
arial.ttf
  4

1001
ACAD
1000
Arial
1071
       34
  0
ENDTAB
  0
TABLE
  2
VIEW
  5
5F00
330
0
100
AcDbSymbolTable
 70
     0
  0
ENDTAB
  0
TABLE
  2
UCS
  5
5F01
330
0
100
AcDbSymbolTable
 70
     0
  0
ENDTAB
  0
TABLE
  2
APPID
  5
5F03
330
0
100
AcDbSymbolTable
 70
    31
  0
APPID
  5
5F58
330
5F03
100
AcDbSymbolTableRecord
100
AcDbRegAppTableRecord
  2
ACAD
 70
     0
  0
APPID
  5
5F5F
330
5F03
100
AcDbSymbolTableRecord
100
AcDbRegAppTableRecord
  2
ACADANNOTATIVE
 70
     0
  0
APPID
  5
5F69
330
5F03
100
AcDbSymbolTableRecord
100
AcDbRegAppTableRecord
  2
ACAD_MLEADERVER
 70
     0
  0
APPID
  5
5F84
330
5F03
100
AcDbSymbolTableRecord
100
AcDbRegAppTableRecord
  2
ACAECLAYERSTANDARD
 70
     0
  0
APPID
  5
5F85
330
5F03
100
AcDbSymbolTableRecord
100
AcDbRegAppTableRecord
  2
ACAD_DSTYLE_DIMEXT_LENGTH
 70
     0
  0
APPID
  5
5F86
330
5F03
100
AcDbSymbolTableRecord
100
AcDbRegAppTableRecord
  2
ACAD_DSTYLE_DIMEXT_ENABLED
 70
     0
  0
APPID
  5
5F87
330
5F03
100
AcDbSymbolTableRecord
100
AcDbRegAppTableRecord
  2
ACAD_DSTYLE_DIMJOGGED_JOGA
 70
     0
  0
APPID
  5
5F88
330
5F03
100
AcDbSymbolTableRecord
100
AcDbRegAppTableRecord
  2
ACAD_DSTYLE_DIMARC_LENGTH_
 70
     0
  0
APPID
  5
5F89
330
5F03
100
AcDbSymbolTableRecord
100
AcDbRegAppTableRecord
  2
ACAD_PSEXT
 70
     0
  0
APPID
  5
5F8A
330
5F03
100
AcDbSymbolTableRecord
100
AcDbRegAppTableRecord
  2
MCAD_NO_VIS
 70
     0
  0
APPID
  5
5F8B
330
5F03
100
AcDbSymbolTableRecord
100
AcDbRegAppTableRecord
  2
ACAD_TEMP_GRAPHIC
 70
     0
  0
APPID
  5
5F8C
330
5F03
100
AcDbSymbolTableRecord
100
AcDbRegAppTableRecord
  2
AD_DRAW
 70
     0
  0
APPID
  5
5F8D
330
5F03
100
AcDbSymbolTableRecord
100
AcDbRegAppTableRecord
  2
ACATTRIBSERVICES
 70
     0
  0
APPID
  5
5F8E
330
5F03
100
AcDbSymbolTableRecord
100
AcDbRegAppTableRecord
  2
DESIGNERASSEMBLIES
 70
     0
  0
APPID
  5
5F8F
330
5F03
100
AcDbSymbolTableRecord
100
AcDbRegAppTableRecord
  2
ACADM_DIM_EDIT
 70
     0
  0
APPID
  5
5F90
330
5F03
100
AcDbSymbolTableRecord
100
AcDbRegAppTableRecord
  2
AMDT_DM_ADJ
 70
     0
  0
APPID
  5
5F91
330
5F03
100
AcDbSymbolTableRecord
100
AcDbRegAppTableRecord
  2
ACAD_DSTYLE_DIMJAG
 70
     0
  0
APPID
  5
5F92
330
5F03
100
AcDbSymbolTableRecord
100
AcDbRegAppTableRecord
  2
ACAD_DSTYLE_DIMBREAK
 70
     0
  0
APPID
  5
5F93
330
5F03
100
AcDbSymbolTableRecord
100
AcDbRegAppTableRecord
  2
ACAD_DSTYLE_DIMTALN
 70
     0
  0
APPID
  5
5F94
330
5F03
100
AcDbSymbolTableRecord
100
AcDbRegAppTableRecord
  2
GENIUS_GENODEF_13
 70
     0
  0
APPID
  5
5F95
330
5F03
100
AcDbSymbolTableRecord
100
AcDbRegAppTableRecord
  2
GENIUS_GENOBJ-N-FIL_13
 70
     0
  0
APPID
  5
5F96
330
5F03
100
AcDbSymbolTableRecord
100
AcDbRegAppTableRecord
  2
ACAD_EXEMPT_FROM_CAD_STANDARDS
 70
     0
  0
APPID
  5
5F97
330
5F03
100
AcDbSymbolTableRecord
100
AcDbRegAppTableRecord
  2
ACAD_DSTYLE_DIM_LINETYPE
 70
     0
  0
APPID
  5
5F98
330
5F03
100
AcDbSymbolTableRecord
100
AcDbRegAppTableRecord
  2
ACAD_DSTYLE_DIM_EXT1_LINETYPE
 70
     0
  0
APPID
  5
5F99
330
5F03
100
AcDbSymbolTableRecord
100
AcDbRegAppTableRecord
  2
ACAD_DSTYLE_DIM_EXT2_LINETYPE
 70
     0
  0
APPID
  5
5F9A
330
5F03
100
AcDbSymbolTableRecord
100
AcDbRegAppTableRecord
  2
ACAD_DSTYLE_DIMRADIAL_EXTENSION
 70
     0
  0
APPID
  5
6488
330
5F03
100
AcDbSymbolTableRecord
100
AcDbRegAppTableRecord
  2
AcadAnnoPO
 70
     0
  0
APPID
  5
6F89
330
5F03
100
AcDbSymbolTableRecord
100
AcDbRegAppTableRecord
  2
GENIUS_GENFIL_13
 70
     0
  0
APPID
  5
6F8A
330
5F03
100
AcDbSymbolTableRecord
100
AcDbRegAppTableRecord
  2
GENIUS_GENOBJ-N-CHA_13
 70
     0
  0
APPID
  5
7D80
330
5F03
100
AcDbSymbolTableRecord
100
AcDbRegAppTableRecord
  2
ACAD_DSTYLE_DIMJOGGED_JOGANGLE_SYMBOL
 70
     0
  0
APPID
  5
805F
330
5F03
100
AcDbSymbolTableRecord
100
AcDbRegAppTableRecord
  2
ACAD_NAV_VCDISPLAY
 70
     0
  0
ENDTAB
  0
TABLE
  2
DIMSTYLE
  5
5F04
330
0
100
AcDbSymbolTable
 70
     7
100
AcDbDimStyleTable
 71
     2
340
5F9B
340
5F59
  0
DIMSTYLE
105
5F59
330
5F04
100
AcDbSymbolTableRecord
100
AcDbDimStyleTableRecord
  2
STANDARD
 70
     0
 41
0.65
 73
     0
 74
     0
140
0.65
176
     3
177
     3
178
     3
271
     3
272
     3
276
     2
277
     5
279
     2
284
     8
285
     8
286
     8
340
5F57
345
5F5E
346
5F5E
347
5F5E
371
    13
372
    13
1001
ACAD_DSTYLE_DIMJAG
1070
   388
1040
1.5
1001
ACAD_DSTYLE_DIMTALN
1070
   392
1070
     0
  0
DIMSTYLE
105
5F9B
102
{ACAD_REACTORS
330
7E37
330
7E45
330
7E53
330
7E61
330
7E6F
330
7E7D
330
7E8B
330
7E9B
330
7EAB
102
}
330
5F04
100
AcDbSymbolTableRecord
100
AcDbDimStyleTableRecord
  2
副本STANDARD
 70
     0
  3
"
  4
"
 41
0.65
 42
0.88
 43
0.015
 44
0.32
 73
     0
 74
     0
 78
     8
140
0.65
143
0.03937
147
0.3
171
     1
172
     1
176
   256
177
   256
178
   256
271
     3
272
     3
274
     1
276
     2
277
     5
279
     2
284
     8
285
     8
286
     8
340
5F57
1001
ACAD_DSTYLE_DIMJAG
1070
   388
1040
1.5
1001
ACAD_DSTYLE_DIMTALN
1070
   392
1070
     0
  0
DIMSTYLE
105
7BC3
330
5F04
100
AcDbSymbolTableRecord
100
AcDbDimStyleTableRecord
  2
毫米英寸Standard
 70
     0
  3
mm
  4
"
 41
14.0
 42
20.0
 44
8.0
 73
     0
 74
     0
 78
     8
 79
     2
140
14.0
143
0.03937
147
8.0
170
     1
171
     3
172
     1
176
   256
177
   256
178
   256
179
     1
271
     1
272
     1
273
     7
274
     3
278
    44
340
5F57
1001
ACAD_DSTYLE_DIMBREAK
1070
   391
1040
0.125
1001
ACAD_DSTYLE_DIMJAG
1070
   388
1040
1.5
1001
ACAD_DSTYLE_DIMTALN
1070
   392
1070
     0
  0
DIMSTYLE
105
7BC4
330
5F04
100
AcDbSymbolTableRecord
100
AcDbDimStyleTableRecord
  2
inch
 70
     0
  3
"
  4
"
 41
14.0
 42
20.0
 44
8.0
 73
     0
 74
     0
 78
     8
 79
     2
140
14.0
143
0.03937
144
0.03937007874
147
8.0
171
     3
172
     1
176
   256
177
   256
178
   256
179
     1
271
     3
272
     3
273
     7
274
     3
276
     2
277
     5
278
    44
340
5F57
  0
DIMSTYLE
105
7BC5
330
5F04
100
AcDbSymbolTableRecord
100
AcDbDimStyleTableRecord
  2
毫米英寸
 70
     0
  3
mm
  4
"
 41
20.0
 42
20.0
 43
3.75
 44
5.0
 45
0.0005
 49
8.0
 73
     0
 74
     0
 78
     8
140
20.0
141
2.5
143
0.03937007874
147
2.0
170
     1
171
     3
172
     1
176
   256
177
   256
178
   256
179
     1
271
     1
272
     1
273
     7
274
     3
276
     2
283
     0
284
     8
285
    12
340
5F57
345
5F5D
371
     9
372
     9
1001
ACAD_DSTYLE_DIMBREAK
1070
   391
1040
3.75
1001
ACAD_DSTYLE_DIMJAG
1070
   388
1040
1.5
1001
ACAD_DSTYLE_DIMTALN
1070
   392
1070
     0
  0
DIMSTYLE
105
7D7E
330
5F04
100
AcDbSymbolTableRecord
100
AcDbDimStyleTableRecord
  2
ISO-25
 70
     0
 41
17.0
 42
10.0
 43
3.75
 44
10.0
 49
1.25
 50
89.99999999999998
 73
     0
 74
     0
 78
     8
 79
     2
140
17.0
141
2.5
143
0.03937007874016
147
4.0
171
     3
172
     1
176
     3
177
     3
178
     3
271
     1
272
     1
274
     3
283
     0
284
     8
340
5F57
371
     9
372
     9
1001
ACAD_DSTYLE_DIMJAG
1070
   388
1040
1.5
1001
ACAD_DSTYLE_DIMTALN
1070
   392
1070
     0
1001
ACAD_DSTYLE_DIMJOGGED_JOGANGLE_SYMBOL
1070
   384
1040
1.570796326794896
  0
DIMSTYLE
105
7D7F
330
5F04
100
AcDbSymbolTableRecord
100
AcDbDimStyleTableRecord
  2
英寸
 70
     0
  3
"
  4
"
 41
16.0
 42
22.0
 44
8.0
 49
8.0
 73
     0
 74
     0
 78
     8
 79
     2
140
16.0
143
0.03937
144
0.03937007874
147
5.0
171
     3
172
     1
176
   256
177
   256
178
   256
179
     1
271
     3
272
     3
273
     7
274
     3
276
     2
277
     5
340
7D7D
345
5F5E
346
5F5E
347
5F5E
371
    13
372
    13
1001
ACAD_DSTYLE_DIMBREAK
1070
   391
1040
0.125
1001
ACAD_DSTYLE_DIMJAG
1070
   388
1040
1.5
1001
ACAD_DSTYLE_DIMTALN
1070
   392
1070
     0
  0
ENDTAB
  0
TABLE
  2
BLOCK_RECORD
  5
5EFB
330
0
100
AcDbSymbolTable
 70
    58
  0
BLOCK_RECORD
  5
5F6E
102
{ACAD_XDICTIONARY
360
654F
102
}
330
5EFB
100
AcDbSymbolTableRecord
100
AcDbBlockTableRecord
  2
*Model_Space
340
5F71
 70
     0
280
     1
281
     0
  0
BLOCK_RECORD
  5
5F6A
330
5EFB
100
AcDbSymbolTableRecord
100
AcDbBlockTableRecord
  2
*Paper_Space
340
5F6D
 70
     0
280
     1
281
     0
  0
BLOCK_RECORD
  5
7651
330
5EFB
100
AcDbSymbolTableRecord
100
AcDbBlockTableRecord
  2
*D0
340
0
 70
     0
280
     1
281
     0
  0
BLOCK_RECORD
  5
765F
330
5EFB
100
AcDbSymbolTableRecord
100
AcDbBlockTableRecord
  2
*D1
340
0
 70
     0
280
     1
281
     0
  0
BLOCK_RECORD
  5
766D
330
5EFB
100
AcDbSymbolTableRecord
100
AcDbBlockTableRecord
  2
*D2
340
0
 70
     0
280
     1
281
     0
  0
BLOCK_RECORD
  5
767B
330
5EFB
100
AcDbSymbolTableRecord
100
AcDbBlockTableRecord
  2
*D3
340
0
 70
     0
280
     1
281
     0
  0
BLOCK_RECORD
  5
7689
330
5EFB
100
AcDbSymbolTableRecord
100
AcDbBlockTableRecord
  2
*D4
340
0
 70
     0
280
     1
281
     0
  0
BLOCK_RECORD
  5
7697
330
5EFB
100
AcDbSymbolTableRecord
100
AcDbBlockTableRecord
  2
*D5
340
0
 70
     0
280
     1
281
     0
  0
BLOCK_RECORD
  5
76A5
330
5EFB
100
AcDbSymbolTableRecord
100
AcDbBlockTableRecord
  2
*D6
340
0
 70
     0
280
     1
281
     0
  0
BLOCK_RECORD
  5
76B3
330
5EFB
100
AcDbSymbolTableRecord
100
AcDbBlockTableRecord
  2
*D7
340
0
 70
     0
280
     1
281
     0
  0
BLOCK_RECORD
  5
76BD
330
5EFB
100
AcDbSymbolTableRecord
100
AcDbBlockTableRecord
  2
*D8
340
0
 70
     0
280
     1
281
     0
  0
BLOCK_RECORD
  5
76EB
330
5EFB
100
AcDbSymbolTableRecord
100
AcDbBlockTableRecord
  2
*D9
340
0
 70
     0
280
     1
281
     0
  0
BLOCK_RECORD
  5
770D
330
5EFB
100
AcDbSymbolTableRecord
100
AcDbBlockTableRecord
  2
*D10
340
0
 70
     0
280
     1
281
     0
  0
BLOCK_RECORD
  5
7745
330
5EFB
100
AcDbSymbolTableRecord
100
AcDbBlockTableRecord
  2
*D11
340
0
 70
     0
280
     1
281
     0
  0
BLOCK_RECORD
  5
774F
330
5EFB
100
AcDbSymbolTableRecord
100
AcDbBlockTableRecord
  2
*D12
340
0
 70
     0
280
     1
281
     0
  0
BLOCK_RECORD
  5
7765
330
5EFB
100
AcDbSymbolTableRecord
100
AcDbBlockTableRecord
  2
*D13
340
0
 70
     0
280
     1
281
     0
  0
BLOCK_RECORD
  5
7773
330
5EFB
100
AcDbSymbolTableRecord
100
AcDbBlockTableRecord
  2
*D14
340
0
 70
     0
280
     1
281
     0
  0
BLOCK_RECORD
  5
7781
330
5EFB
100
AcDbSymbolTableRecord
100
AcDbBlockTableRecord
  2
*D15
340
0
 70
     0
280
     1
281
     0
  0
BLOCK_RECORD
  5
779B
330
5EFB
100
AcDbSymbolTableRecord
100
AcDbBlockTableRecord
  2
*D16
340
0
 70
     0
280
     1
281
     0
  0
BLOCK_RECORD
  5
77A5
330
5EFB
100
AcDbSymbolTableRecord
100
AcDbBlockTableRecord
  2
*D17
340
0
 70
     0
280
     1
281
     0
  0
BLOCK_RECORD
  5
77AF
330
5EFB
100
AcDbSymbolTableRecord
100
AcDbBlockTableRecord
  2
*D18
340
0
 70
     0
280
     1
281
     0
  0
BLOCK_RECORD
  5
7955
330
5EFB
100
AcDbSymbolTableRecord
100
AcDbBlockTableRecord
  2
*D19
340
0
 70
     0
280
     1
281
     0
  0
BLOCK_RECORD
  5
7962
330
5EFB
100
AcDbSymbolTableRecord
100
AcDbBlockTableRecord
  2
*D20
340
0
 70
     0
280
     1
281
     0
  0
BLOCK_RECORD
  5
796F
330
5EFB
100
AcDbSymbolTableRecord
100
AcDbBlockTableRecord
  2
*D21
340
0
 70
     0
280
     1
281
     0
  0
BLOCK_RECORD
  5
797C
330
5EFB
100
AcDbSymbolTableRecord
100
AcDbBlockTableRecord
  2
*D22
340
0
 70
     0
280
     1
281
     0
  0
BLOCK_RECORD
  5
7989
330
5EFB
100
AcDbSymbolTableRecord
100
AcDbBlockTableRecord
  2
*D23
340
0
 70
     0
280
     1
281
     0
  0
BLOCK_RECORD
  5
7996
330
5EFB
100
AcDbSymbolTableRecord
100
AcDbBlockTableRecord
  2
*D24
340
0
 70
     0
280
     1
281
     0
  0
BLOCK_RECORD
  5
79A3
330
5EFB
100
AcDbSymbolTableRecord
100
AcDbBlockTableRecord
  2
*D25
340
0
 70
     0
280
     1
281
     0
  0
BLOCK_RECORD
  5
79B0
330
5EFB
100
AcDbSymbolTableRecord
100
AcDbBlockTableRecord
  2
*D26
340
0
 70
     0
280
     1
281
     0
  0
BLOCK_RECORD
  5
79B9
330
5EFB
100
AcDbSymbolTableRecord
100
AcDbBlockTableRecord
  2
*D27
340
0
 70
     0
280
     1
281
     0
  0
BLOCK_RECORD
  5
79C2
330
5EFB
100
AcDbSymbolTableRecord
100
AcDbBlockTableRecord
  2
*D28
340
0
 70
     0
280
     1
281
     0
  0
BLOCK_RECORD
  5
79CF
330
5EFB
100
AcDbSymbolTableRecord
100
AcDbBlockTableRecord
  2
*D29
340
0
 70
     0
280
     1
281
     0
  0
BLOCK_RECORD
  5
79DC
330
5EFB
100
AcDbSymbolTableRecord
100
AcDbBlockTableRecord
  2
*D30
340
0
 70
     0
280
     1
281
     0
  0
BLOCK_RECORD
  5
79E5
330
5EFB
100
AcDbSymbolTableRecord
100
AcDbBlockTableRecord
  2
*D31
340
0
 70
     0
280
     1
281
     0
  0
BLOCK_RECORD
  5
79EE
330
5EFB
100
AcDbSymbolTableRecord
100
AcDbBlockTableRecord
  2
*D32
340
0
 70
     0
280
     1
281
     0
  0
BLOCK_RECORD
  5
79FB
330
5EFB
100
AcDbSymbolTableRecord
100
AcDbBlockTableRecord
  2
*D33
340
0
 70
     0
280
     1
281
     0
  0
BLOCK_RECORD
  5
7A08
330
5EFB
100
AcDbSymbolTableRecord
100
AcDbBlockTableRecord
  2
*D34
340
0
 70
     0
280
     1
281
     0
  0
BLOCK_RECORD
  5
7A15
330
5EFB
100
AcDbSymbolTableRecord
100
AcDbBlockTableRecord
  2
*D35
340
0
 70
     0
280
     1
281
     0
  0
BLOCK_RECORD
  5
7A1E
330
5EFB
100
AcDbSymbolTableRecord
100
AcDbBlockTableRecord
  2
*D36
340
0
 70
     0
280
     1
281
     0
  0
BLOCK_RECORD
  5
7A27
330
5EFB
100
AcDbSymbolTableRecord
100
AcDbBlockTableRecord
  2
*D37
340
0
 70
     0
280
     1
281
     0
  0
BLOCK_RECORD
  5
7C8D
330
5EFB
100
AcDbSymbolTableRecord
100
AcDbBlockTableRecord
  2
*D38
340
0
 70
     0
280
     1
281
     0
  0
BLOCK_RECORD
  5
7C9B
330
5EFB
100
AcDbSymbolTableRecord
100
AcDbBlockTableRecord
  2
*D39
340
0
 70
     0
280
     1
281
     0
  0
BLOCK_RECORD
  5
7CA9
330
5EFB
100
AcDbSymbolTableRecord
100
AcDbBlockTableRecord
  2
*D40
340
0
 70
     0
280
     1
281
     0
  0
BLOCK_RECORD
  5
7CB9
330
5EFB
100
AcDbSymbolTableRecord
100
AcDbBlockTableRecord
  2
*D41
340
0
 70
     0
280
     1
281
     0
  0
BLOCK_RECORD
  5
7CC7
330
5EFB
100
AcDbSymbolTableRecord
100
AcDbBlockTableRecord
  2
*D42
340
0
 70
     0
280
     1
281
     0
  0
BLOCK_RECORD
  5
7CD5
330
5EFB
100
AcDbSymbolTableRecord
100
AcDbBlockTableRecord
  2
*D43
340
0
 70
     0
280
     1
281
     0
  0
BLOCK_RECORD
  5
7CE3
330
5EFB
100
AcDbSymbolTableRecord
100
AcDbBlockTableRecord
  2
*D44
340
0
 70
     0
280
     1
281
     0
  0
BLOCK_RECORD
  5
7CF1
330
5EFB
100
AcDbSymbolTableRecord
100
AcDbBlockTableRecord
  2
*D45
340
0
 70
     0
280
     1
281
     0
  0
BLOCK_RECORD
  5
7CFF
330
5EFB
100
AcDbSymbolTableRecord
100
AcDbBlockTableRecord
  2
*D46
340
0
 70
     0
280
     1
281
     0
  0
BLOCK_RECORD
  5
7D0F
330
5EFB
100
AcDbSymbolTableRecord
100
AcDbBlockTableRecord
  2
*D47
340
0
 70
     0
280
     1
281
     0
  0
BLOCK_RECORD
  5
7E38
330
5EFB
100
AcDbSymbolTableRecord
100
AcDbBlockTableRecord
  2
*D48
340
0
 70
     0
280
     1
281
     0
  0
BLOCK_RECORD
  5
7E46
330
5EFB
100
AcDbSymbolTableRecord
100
AcDbBlockTableRecord
  2
*D49
340
0
 70
     0
280
     1
281
     0
  0
BLOCK_RECORD
  5
7E54
330
5EFB
100
AcDbSymbolTableRecord
100
AcDbBlockTableRecord
  2
*D50
340
0
 70
     0
280
     1
281
     0
  0
BLOCK_RECORD
  5
7E62
330
5EFB
100
AcDbSymbolTableRecord
100
AcDbBlockTableRecord
  2
*D51
340
0
 70
     0
280
     1
281
     0
  0
BLOCK_RECORD
  5
7E70
330
5EFB
100
AcDbSymbolTableRecord
100
AcDbBlockTableRecord
  2
*D52
340
0
 70
     0
280
     1
281
     0
  0
BLOCK_RECORD
  5
7E7E
330
5EFB
100
AcDbSymbolTableRecord
100
AcDbBlockTableRecord
  2
*D53
340
0
 70
     0
280
     1
281
     0
  0
BLOCK_RECORD
  5
7E8C
330
5EFB
100
AcDbSymbolTableRecord
100
AcDbBlockTableRecord
  2
*D54
340
0
 70
     0
280
     1
281
     0
  0
BLOCK_RECORD
  5
7E9C
330
5EFB
100
AcDbSymbolTableRecord
100
AcDbBlockTableRecord
  2
*D55
340
0
 70
     0
280
     1
281
     0
  0
BLOCK_RECORD
  5
7EAC
330
5EFB
100
AcDbSymbolTableRecord
100
AcDbBlockTableRecord
  2
*D56
340
0
 70
     0
280
     1
281
     0
  0
BLOCK_RECORD
  5
7FBA
330
5EFB
100
AcDbSymbolTableRecord
100
AcDbBlockTableRecord
  2
*D57
340
0
 70
     0
280
     1
281
     0
  0
ENDTAB
  0
ENDSEC
  0
SECTION
  2
BLOCKS
  0
BLOCK
  5
5F6F
330
5F6E
100
AcDbEntity
  8
0
100
AcDbBlockBegin
  2
*Model_Space
 70
     0
 10
0.0
 20
0.0
 30
0.0
  3
*Model_Space
  1

  0
ENDBLK
  5
5F70
330
5F6E
100
AcDbEntity
  8
0
100
AcDbBlockEnd
  0
BLOCK
  5
5F6B
330
5F6A
100
AcDbEntity
 67
     1
  8
0
100
AcDbBlockBegin
  2
*Paper_Space
 70
     0
 10
0.0
 20
0.0
 30
0.0
  3
*Paper_Space
  1

  0
ENDBLK
  5
5F6C
330
5F6A
100
AcDbEntity
 67
     1
  8
0
100
AcDbBlockEnd
  0
BLOCK
  5
7652
330
7651
100
AcDbEntity
  8
0
100
AcDbBlockBegin
  2
*D0
 70
     1
 10
0.0
 20
0.0
 30
0.0
  3
*D0
  1

  0
LINE
  5
77CA
330
7651
100
AcDbEntity
  8
标注
370
    -2
100
AcDbLine
 10
1094.219037908409
 20
138.162998433621
 30
0.0
 11
1094.219037908409
 21
135.1913252291895
 31
0.0
  0
LINE
  5
77CB
330
7651
100
AcDbEntity
  8
标注
370
    -2
100
AcDbLine
 10
1112.219037908332
 20
138.162998433621
 30
0.0
 11
1112.219037908332
 21
135.1913252291895
 31
0.0
  0
LINE
  5
77CC
330
7651
100
AcDbEntity
  8
标注
370
    -2
100
AcDbLine
 10
1094.869037908409
 20
135.5113252291895
 30
0.0
 11
1102.323574061167
 21
135.5113252291895
 31
0.0
  0
LINE
  5
77CD
330
7651
100
AcDbEntity
  8
标注
370
    -2
100
AcDbLine
 10
1111.569037908331
 20
135.5113252291895
 30
0.0
 11
1104.114501755574
 21
135.5113252291895
 31
0.0
  0
SOLID
  5
77CE
330
7651
100
AcDbEntity
  8
标注
100
AcDbTrace
 10
1094.869037908409
 20
135.6196585625228
 30
0.0
 11
1094.869037908409
 21
135.4029918958562
 31
0.0
 12
1094.219037908409
 22
135.5113252291895
 32
0.0
 13
1094.219037908409
 23
135.5113252291895
 33
0.0
  0
SOLID
  5
77CF
330
7651
100
AcDbEntity
  8
标注
100
AcDbTrace
 10
1111.569037908331
 20
135.6196585625228
 30
0.0
 11
1111.569037908331
 21
135.4029918958562
 31
0.0
 12
1112.219037908332
 22
135.5113252291895
 32
0.0
 13
1112.219037908332
 23
135.5113252291895
 33
0.0
  0
MTEXT
  5
77D0
330
7651
100
AcDbEntity
  8
标注
100
AcDbMText
 10
1103.21903790837
 20
135.5113252291895
 30
0.0
 40
0.65
 41
0.0
 46
0.0
 71
     5
 72
     1
  1
\A1;18"
 73
     1
 44
1.0
  0
POINT
  5
77D1
330
7651
100
AcDbEntity
  8
DEFPOINTS
 62
     0
100
AcDbPoint
 10
1094.219037908409
 20
139.0429984336211
 30
0.0
  0
POINT
  5
77D2
330
7651
100
AcDbEntity
  8
DEFPOINTS
 62
     0
100
AcDbPoint
 10
1112.219037908332
 20
139.0429984336211
 30
0.0
  0
POINT
  5
77D3
330
7651
100
AcDbEntity
  8
DEFPOINTS
 62
     0
100
AcDbPoint
 10
1112.219037908332
 20
135.5113252291895
 30
0.0
  0
ENDBLK
  5
7653
330
7651
100
AcDbEntity
  8
0
100
AcDbBlockEnd
  0
BLOCK
  5
7660
330
765F
100
AcDbEntity
  8
0
100
AcDbBlockBegin
  2
*D1
 70
     1
 10
0.0
 20
0.0
 30
0.0
  3
*D1
  1

  0
LINE
  5
77D4
330
765F
100
AcDbEntity
  8
标注
370
    -2
100
AcDbLine
 10
1113.219037908341
 20
138.162998433621
 30
0.0
 11
1113.219037908341
 21
135.1913252291895
 31
0.0
  0
LINE
  5
77D5
330
765F
100
AcDbEntity
  8
标注
370
    -2
100
AcDbLine
 10
1124.219037908293
 20
138.162998433621
 30
0.0
 11
1124.219037908293
 21
135.1913252291895
 31
0.0
  0
LINE
  5
77D6
330
765F
100
AcDbEntity
  8
标注
370
    -2
100
AcDbLine
 10
1113.869037908341
 20
135.5113252291895
 30
0.0
 11
1117.823574061114
 21
135.5113252291895
 31
0.0
  0
LINE
  5
77D7
330
765F
100
AcDbEntity
  8
标注
370
    -2
100
AcDbLine
 10
1123.569037908293
 20
135.5113252291895
 30
0.0
 11
1119.61450175552
 21
135.5113252291895
 31
0.0
  0
SOLID
  5
77D8
330
765F
100
AcDbEntity
  8
标注
100
AcDbTrace
 10
1113.869037908341
 20
135.6196585625228
 30
0.0
 11
1113.869037908341
 21
135.4029918958562
 31
0.0
 12
1113.219037908341
 22
135.5113252291895
 32
0.0
 13
1113.219037908341
 23
135.5113252291895
 33
0.0
  0
SOLID
  5
77D9
330
765F
100
AcDbEntity
  8
标注
100
AcDbTrace
 10
1123.569037908293
 20
135.6196585625228
 30
0.0
 11
1123.569037908293
 21
135.4029918958562
 31
0.0
 12
1124.219037908293
 22
135.5113252291895
 32
0.0
 13
1124.219037908293
 23
135.5113252291895
 33
0.0
  0
MTEXT
  5
77DA
330
765F
100
AcDbEntity
  8
标注
100
AcDbMText
 10
1118.719037908317
 20
135.5113252291895
 30
0.0
 40
0.65
 41
0.0
 46
0.0
 71
     5
 72
     1
  1
\A1;11"
 73
     1
 44
1.0
  0
POINT
  5
77DB
330
765F
100
AcDbEntity
  8
DEFPOINTS
 62
     0
100
AcDbPoint
 10
1113.219037908341
 20
139.0429984336211
 30
0.0
  0
POINT
  5
77DC
330
765F
100
AcDbEntity
  8
DEFPOINTS
 62
     0
100
AcDbPoint
 10
1124.219037908293
 20
139.0429984336211
 30
0.0
  0
POINT
  5
77DD
330
765F
100
AcDbEntity
  8
DEFPOINTS
 62
     0
100
AcDbPoint
 10
1124.219037908293
 20
135.5113252291895
 30
0.0
  0
ENDBLK
  5
7661
330
765F
100
AcDbEntity
  8
0
100
AcDbBlockEnd
  0
BLOCK
  5
766E
330
766D
100
AcDbEntity
  8
0
100
AcDbBlockBegin
  2
*D2
 70
     1
 10
0.0
 20
0.0
 30
0.0
  3
*D2
  1

  0
LINE
  5
77DE
330
766D
100
AcDbEntity
  8
标注
370
    -2
100
AcDbLine
 10
1093.732738695828
 20
138.6492976462309
 30
0.0
 11
1090.728333272927
 21
138.6492976462309
 31
0.0
  0
LINE
  5
77DF
330
766D
100
AcDbEntity
  8
标注
370
    -2
100
AcDbLine
 10
1093.732738695828
 20
156.6492976461727
 30
0.0
 11
1090.728333272927
 21
156.6492976461727
 31
0.0
  0
LINE
  5
77E0
330
766D
100
AcDbEntity
  8
标注
370
    -2
100
AcDbLine
 10
1091.048333272927
 20
139.2992976462309
 30
0.0
 11
1091.048333272927
 21
146.7538337989986
 31
0.0
  0
LINE
  5
77E1
330
766D
100
AcDbEntity
  8
标注
370
    -2
100
AcDbLine
 10
1091.048333272927
 20
155.9992976461727
 30
0.0
 11
1091.048333272927
 21
148.5447614934051
 31
0.0
  0
SOLID
  5
77E2
330
766D
100
AcDbEntity
  8
标注
100
AcDbTrace
 10
1090.939999939593
 20
139.2992976462309
 30
0.0
 11
1091.15666660626
 21
139.2992976462309
 31
0.0
 12
1091.048333272927
 22
138.6492976462309
 32
0.0
 13
1091.048333272927
 23
138.6492976462309
 33
0.0
  0
SOLID
  5
77E3
330
766D
100
AcDbEntity
  8
标注
100
AcDbTrace
 10
1090.939999939593
 20
155.9992976461727
 30
0.0
 11
1091.15666660626
 21
155.9992976461727
 31
0.0
 12
1091.048333272927
 22
156.6492976461727
 32
0.0
 13
1091.048333272927
 23
156.6492976461727
 33
0.0
  0
MTEXT
  5
77E4
330
766D
100
AcDbEntity
  8
标注
100
AcDbMText
 10
1091.048333272927
 20
147.649297646202
 30
0.0
 40
0.65
 41
0.0
 46
0.0
 71
     5
 72
     1
  1
\A1;18"
 11
0.0000000000000001
 21
1.0
 31
0.0
 73
     1
 44
1.0
  0
POINT
  5
77E5
330
766D
100
AcDbEntity
  8
DEFPOINTS
 62
     0
100
AcDbPoint
 10
1094.612738695828
 20
138.6492976462309
 30
0.0
  0
POINT
  5
77E6
330
766D
100
AcDbEntity
  8
DEFPOINTS
 62
     0
100
AcDbPoint
 10
1094.612738695828
 20
156.6492976461727
 30
0.0
  0
POINT
  5
77E7
330
766D
100
AcDbEntity
  8
DEFPOINTS
 62
     0
100
AcDbPoint
 10
1091.048333272927
 20
156.6492976461727
 30
0.0
  0
ENDBLK
  5
766F
330
766D
100
AcDbEntity
  8
0
100
AcDbBlockEnd
  0
BLOCK
  5
767C
330
767B
100
AcDbEntity
  8
0
100
AcDbBlockBegin
  2
*D3
 70
     1
 10
0.0
 20
0.0
 30
0.0
  3
*D3
  1

  0
LINE
  5
77E8
330
767B
100
AcDbEntity
  8
标注
370
    -2
100
AcDbLine
 10
1093.339037908409
 20
137.6492976462309
 30
0.0
 11
1088.629100061997
 21
137.6492976462309
 31
0.0
  0
LINE
  5
77E9
330
767B
100
AcDbEntity
  8
标注
370
    -2
100
AcDbLine
 10
1093.339037908296
 20
157.6492976461445
 30
0.0
 11
1088.629100061997
 21
157.6492976461445
 31
0.0
  0
LINE
  5
77EA
330
767B
100
AcDbEntity
  8
标注
370
    -2
100
AcDbLine
 10
1088.949100061997
 20
138.2992976462309
 30
0.0
 11
1088.949100061997
 21
146.7176980554645
 31
0.0
  0
LINE
  5
77EB
330
767B
100
AcDbEntity
  8
标注
370
    -2
100
AcDbLine
 10
1088.949100061997
 20
156.9992976461445
 30
0.0
 11
1088.949100061997
 21
148.5808972369108
 31
0.0
  0
SOLID
  5
77EC
330
767B
100
AcDbEntity
  8
标注
100
AcDbTrace
 10
1088.840766728663
 20
138.2992976462309
 30
0.0
 11
1089.05743339533
 21
138.2992976462309
 31
0.0
 12
1088.949100061997
 22
137.6492976462309
 32
0.0
 13
1088.949100061997
 23
137.6492976462309
 33
0.0
  0
SOLID
  5
77ED
330
767B
100
AcDbEntity
  8
标注
100
AcDbTrace
 10
1088.840766728663
 20
156.9992976461445
 30
0.0
 11
1089.05743339533
 21
156.9992976461445
 31
0.0
 12
1088.949100061997
 22
157.6492976461445
 32
0.0
 13
1088.949100061997
 23
157.6492976461445
 33
0.0
  0
MTEXT
  5
77EE
330
767B
100
AcDbEntity
  8
标注
100
AcDbMText
 10
1088.949100061997
 20
147.6492976461879
 30
0.0
 40
0.65
 41
0.0
 46
0.0
 71
     5
 72
     1
  1
\A1;20"
 11
0.0000000000000001
 21
1.0
 31
0.0
 73
     1
 44
1.0
  0
POINT
  5
77EF
330
767B
100
AcDbEntity
  8
DEFPOINTS
 62
     0
100
AcDbPoint
 10
1094.219037908409
 20
137.6492976462309
 30
0.0
  0
POINT
  5
77F0
330
767B
100
AcDbEntity
  8
DEFPOINTS
 62
     0
100
AcDbPoint
 10
1094.219037908296
 20
157.6492976461445
 30
0.0
  0
POINT
  5
77F1
330
767B
100
AcDbEntity
  8
DEFPOINTS
 62
     0
100
AcDbPoint
 10
1088.949100061997
 20
157.6492976461445
 30
0.0
  0
ENDBLK
  5
767D
330
767B
100
AcDbEntity
  8
0
100
AcDbBlockEnd
  0
BLOCK
  5
768A
330
7689
100
AcDbEntity
  8
0
100
AcDbBlockBegin
  2
*D4
 70
     1
 10
0.0
 20
0.0
 30
0.0
  3
*D4
  1

  0
LINE
  5
77F2
330
7689
100
AcDbEntity
  8
标注
370
    -2
100
AcDbLine
 10
1124.705337120903
 20
138.6492976462309
 30
0.0
 11
1127.230265449214
 21
138.6492976462309
 31
0.0
  0
LINE
  5
77F3
330
7689
100
AcDbEntity
  8
标注
370
    -2
100
AcDbLine
 10
1124.705337120903
 20
153.6492976461727
 30
0.0
 11
1127.230265449214
 21
153.6492976461727
 31
0.0
  0
LINE
  5
77F4
330
7689
100
AcDbEntity
  8
标注
370
    -2
100
AcDbLine
 10
1126.910265449214
 20
139.2992976462309
 30
0.0
 11
1126.910265449214
 21
145.2538337989986
 31
0.0
  0
LINE
  5
77F5
330
7689
100
AcDbEntity
  8
标注
370
    -2
100
AcDbLine
 10
1126.910265449214
 20
152.9992976461727
 30
0.0
 11
1126.910265449214
 21
147.0447614934051
 31
0.0
  0
SOLID
  5
77F6
330
7689
100
AcDbEntity
  8
标注
100
AcDbTrace
 10
1126.801932115881
 20
139.2992976462309
 30
0.0
 11
1127.018598782548
 21
139.2992976462309
 31
0.0
 12
1126.910265449214
 22
138.6492976462309
 32
0.0
 13
1126.910265449214
 23
138.6492976462309
 33
0.0
  0
SOLID
  5
77F7
330
7689
100
AcDbEntity
  8
标注
100
AcDbTrace
 10
1126.801932115881
 20
152.9992976461727
 30
0.0
 11
1127.018598782548
 21
152.9992976461727
 31
0.0
 12
1126.910265449214
 22
153.6492976461727
 32
0.0
 13
1126.910265449214
 23
153.6492976461727
 33
0.0
  0
MTEXT
  5
77F8
330
7689
100
AcDbEntity
  8
标注
100
AcDbMText
 10
1126.910265449214
 20
146.149297646202
 30
0.0
 40
0.65
 41
0.0
 46
0.0
 71
     5
 72
     1
  1
\A1;15"
 11
0.0000000000000001
 21
1.0
 31
0.0
 73
     1
 44
1.0
  0
POINT
  5
77F9
330
7689
100
AcDbEntity
  8
DEFPOINTS
 62
     0
100
AcDbPoint
 10
1123.825337120903
 20
138.6492976462309
 30
0.0
  0
POINT
  5
77FA
330
7689
100
AcDbEntity
  8
DEFPOINTS
 62
     0
100
AcDbPoint
 10
1123.825337120903
 20
153.6492976461727
 30
0.0
  0
POINT
  5
77FB
330
7689
100
AcDbEntity
  8
DEFPOINTS
 62
     0
100
AcDbPoint
 10
1126.910265449214
 20
153.6492976461727
 30
0.0
  0
ENDBLK
  5
768B
330
7689
100
AcDbEntity
  8
0
100
AcDbBlockEnd
  0
BLOCK
  5
7698
330
7697
100
AcDbEntity
  8
0
100
AcDbBlockBegin
  2
*D5
 70
     1
 10
0.0
 20
0.0
 30
0.0
  3
*D5
  1

  0
LINE
  5
77FC
330
7697
100
AcDbEntity
  8
标注
370
    -2
100
AcDbLine
 10
1125.099037908293
 20
137.6492976462309
 30
0.0
 11
1128.947244791557
 21
137.6492976462309
 31
0.0
  0
LINE
  5
77FD
330
7697
100
AcDbEntity
  8
标注
370
    -2
100
AcDbLine
 10
1125.099037908293
 20
154.6492976461727
 30
0.0
 11
1128.947244791557
 21
154.6492976461727
 31
0.0
  0
LINE
  5
77FE
330
7697
100
AcDbEntity
  8
标注
370
    -2
100
AcDbLine
 10
1128.627244791557
 20
138.2992976462309
 30
0.0
 11
1128.627244791557
 21
145.2538337989986
 31
0.0
  0
LINE
  5
77FF
330
7697
100
AcDbEntity
  8
标注
370
    -2
100
AcDbLine
 10
1128.627244791557
 20
153.9992976461727
 30
0.0
 11
1128.627244791557
 21
147.0447614934051
 31
0.0
  0
SOLID
  5
7800
330
7697
100
AcDbEntity
  8
标注
100
AcDbTrace
 10
1128.518911458224
 20
138.2992976462309
 30
0.0
 11
1128.735578124891
 21
138.2992976462309
 31
0.0
 12
1128.627244791557
 22
137.6492976462309
 32
0.0
 13
1128.627244791557
 23
137.6492976462309
 33
0.0
  0
SOLID
  5
7801
330
7697
100
AcDbEntity
  8
标注
100
AcDbTrace
 10
1128.518911458224
 20
153.9992976461727
 30
0.0
 11
1128.735578124891
 21
153.9992976461727
 31
0.0
 12
1128.627244791557
 22
154.6492976461727
 32
0.0
 13
1128.627244791557
 23
154.6492976461727
 33
0.0
  0
MTEXT
  5
7802
330
7697
100
AcDbEntity
  8
标注
100
AcDbMText
 10
1128.627244791557
 20
146.149297646202
 30
0.0
 40
0.65
 41
0.0
 46
0.0
 71
     5
 72
     1
  1
\A1;17"
 11
0.0000000000000001
 21
1.0
 31
0.0
 73
     1
 44
1.0
  0
POINT
  5
7803
330
7697
100
AcDbEntity
  8
DEFPOINTS
 62
     0
100
AcDbPoint
 10
1124.219037908293
 20
137.6492976462309
 30
0.0
  0
POINT
  5
7804
330
7697
100
AcDbEntity
  8
DEFPOINTS
 62
     0
100
AcDbPoint
 10
1124.219037908293
 20
154.6492976461727
 30
0.0
  0
POINT
  5
7805
330
7697
100
AcDbEntity
  8
DEFPOINTS
 62
     0
100
AcDbPoint
 10
1128.627244791557
 20
154.6492976461727
 30
0.0
  0
ENDBLK
  5
7699
330
7697
100
AcDbEntity
  8
0
100
AcDbBlockEnd
  0
BLOCK
  5
76A6
330
76A5
100
AcDbEntity
  8
0
100
AcDbBlockBegin
  2
*D6
 70
     1
 10
0.0
 20
0.0
 30
0.0
  3
*D6
  1

  0
LINE
  5
7806
330
76A5
100
AcDbEntity
  8
标注
370
    -2
100
AcDbLine
 10
1093.219037908409
 20
137.7692976462309
 30
0.0
 11
1093.219037908409
 21
133.3930756036228
 31
0.0
  0
LINE
  5
7807
330
76A5
100
AcDbEntity
  8
标注
370
    -2
100
AcDbLine
 10
1125.219037908293
 20
137.7692976462309
 30
0.0
 11
1125.219037908293
 21
133.3930756036228
 31
0.0
  0
LINE
  5
7808
330
76A5
100
AcDbEntity
  8
标注
370
    -2
100
AcDbLine
 10
1093.869037908409
 20
133.7130756036228
 30
0.0
 11
1108.293202301257
 21
133.7130756036228
 31
0.0
  0
LINE
  5
7809
330
76A5
100
AcDbEntity
  8
标注
370
    -2
100
AcDbLine
 10
1124.569037908293
 20
133.7130756036228
 30
0.0
 11
1110.144873515445
 21
133.7130756036228
 31
0.0
  0
SOLID
  5
780A
330
76A5
100
AcDbEntity
  8
标注
100
AcDbTrace
 10
1093.869037908409
 20
133.8214089369561
 30
0.0
 11
1093.869037908409
 21
133.6047422702895
 31
0.0
 12
1093.219037908409
 22
133.7130756036228
 32
0.0
 13
1093.219037908409
 23
133.7130756036228
 33
0.0
  0
SOLID
  5
780B
330
76A5
100
AcDbEntity
  8
标注
100
AcDbTrace
 10
1124.569037908293
 20
133.8214089369561
 30
0.0
 11
1124.569037908293
 21
133.6047422702895
 31
0.0
 12
1125.219037908293
 22
133.7130756036228
 32
0.0
 13
1125.219037908293
 23
133.7130756036228
 33
0.0
  0
MTEXT
  5
780C
330
76A5
100
AcDbEntity
  8
标注
100
AcDbMText
 10
1109.219037908351
 20
133.7130756036228
 30
0.0
 40
0.65
 41
0.0
 46
0.0
 71
     5
 72
     1
  1
\A1;32"
 73
     1
 44
1.0
  0
POINT
  5
780D
330
76A5
100
AcDbEntity
  8
DEFPOINTS
 62
     0
100
AcDbPoint
 10
1093.219037908409
 20
138.6492976462309
 30
0.0
  0
POINT
  5
780E
330
76A5
100
AcDbEntity
  8
DEFPOINTS
 62
     0
100
AcDbPoint
 10
1125.219037908293
 20
138.6492976462309
 30
0.0
  0
POINT
  5
780F
330
76A5
100
AcDbEntity
  8
DEFPOINTS
 62
     0
100
AcDbPoint
 10
1125.219037908293
 20
133.7130756036228
 30
0.0
  0
ENDBLK
  5
76A7
330
76A5
100
AcDbEntity
  8
0
100
AcDbBlockEnd
  0
BLOCK
  5
76B4
330
76B3
100
AcDbEntity
  8
0
100
AcDbBlockBegin
  2
*D7
 70
     1
 10
0.0
 20
0.0
 30
0.0
  3
*D7
  1

  0
LINE
  5
7810
330
76B3
100
AcDbEntity
  8
标注
370
    -2
100
AcDbLine
 10
1093.87626493558
 20
156.9951357246206
 30
0.0
 11
1093.417600967974
 21
157.4557085905384
 31
0.0
  0
MTEXT
  5
7811
330
76B3
100
AcDbEntity
  8
标注
100
AcDbMText
 10
1093.600253988969
 20
158.3447249952715
 30
0.0
 40
0.65
 41
0.0
 46
0.0
 71
     5
 72
     1
  1
\A1;5-R3/8"
 11
0.7056368732401872
 21
-0.7085736398736634
 31
0.0
 73
     1
 44
1.0
  0
LINE
  5
7812
330
76B3
100
AcDbEntity
  8
标注
370
    -2
100
AcDbLine
 10
1094.6127386958
 20
156.2555968587534
 30
0.0
 11
1094.334928903186
 21
156.5345628587027
 31
0.0
  0
SOLID
  5
7813
330
76B3
100
AcDbEntity
  8
标注
100
AcDbTrace
 10
1093.9530270799
 20
157.0715797192216
 30
0.0
 11
1093.79950279126
 21
156.9186917300195
 31
0.0
 12
1094.334928903186
 22
156.5345628587027
 32
0.0
 13
1094.334928903186
 23
156.5345628587027
 33
0.0
  0
POINT
  5
7814
330
76B3
100
AcDbEntity
  8
DEFPOINTS
 62
     0
100
AcDbPoint
 10
1094.334928903186
 20
156.5345628587027
 30
0.0
  0
POINT
  5
7815
330
76B3
100
AcDbEntity
  8
DEFPOINTS
 62
     0
100
AcDbPoint
 10
1094.6127386958
 20
156.2555968587534
 30
0.0
  0
ENDBLK
  5
76B5
330
76B3
100
AcDbEntity
  8
0
100
AcDbBlockEnd
  0
BLOCK
  5
76BE
330
76BD
100
AcDbEntity
  8
0
100
AcDbBlockBegin
  2
*D8
 70
     1
 10
0.0
 20
0.0
 30
0.0
  3
*D8
  1

  0
LINE
  5
7816
330
76BD
100
AcDbEntity
  8
标注
370
    -2
100
AcDbLine
 10
1124.291583090298
 20
154.1893666535615
 30
0.0
 11
1124.581953552567
 21
154.7709034061764
 31
0.0
  0
MTEXT
  5
7817
330
76BD
100
AcDbEntity
  8
标注
100
AcDbMText
 10
1124.530643726963
 20
155.8799004967975
 30
0.0
 40
0.65
 41
0.0
 46
0.0
 71
     5
 72
     1
  1
\A1;4-R3/8"
 11
0.446723788105388
 21
0.8946719270999693
 31
0.0
 73
     1
 44
1.0
  0
LINE
  5
7818
330
76BD
100
AcDbEntity
  8
标注
370
    -2
100
AcDbLine
 10
1123.825337120903
 20
153.2555968587827
 30
0.0
 11
1124.00121262803
 21
153.6078299009465
 31
0.0
  0
SOLID
  5
7819
330
76BD
100
AcDbEntity
  8
标注
100
AcDbTrace
 10
1124.194660298196
 20
154.2377617306062
 30
0.0
 11
1124.388505882401
 21
154.1409715765166
 31
0.0
 12
1124.00121262803
 22
153.6078299009465
 32
0.0
 13
1124.00121262803
 23
153.6078299009465
 33
0.0
  0
POINT
  5
781A
330
76BD
100
AcDbEntity
  8
DEFPOINTS
 62
     0
100
AcDbPoint
 10
1124.00121262803
 20
153.6078299009465
 30
0.0
  0
POINT
  5
781B
330
76BD
100
AcDbEntity
  8
DEFPOINTS
 62
     0
100
AcDbPoint
 10
1123.825337120903
 20
153.2555968587827
 30
0.0
  0
ENDBLK
  5
76BF
330
76BD
100
AcDbEntity
  8
0
100
AcDbBlockEnd
  0
BLOCK
  5
76EC
330
76EB
100
AcDbEntity
  8
0
100
AcDbBlockBegin
  2
*D9
 70
     1
 10
0.0
 20
0.0
 30
0.0
  3
*D9
  1

  0
LINE
  5
781C
330
76EB
100
AcDbEntity
  8
标注
370
    -2
100
AcDbLine
 10
1126.099037908293
 20
180.2520553898191
 30
0.0
 11
1126.704445311587
 21
180.2520553898191
 31
0.0
  0
LINE
  5
781D
330
76EB
100
AcDbEntity
  8
标注
370
    -2
100
AcDbLine
 10
1125.2099719636
 20
172.3114609016493
 30
0.0
 11
1126.704445311587
 21
172.3114609016493
 31
0.0
  0
LINE
  5
781E
330
76EB
100
AcDbEntity
  8
标注
370
    -2
100
AcDbLine
 10
1126.384445311588
 20
179.6020553898191
 30
0.0
 11
1126.384445311588
 21
176.95575200658
 31
0.0
  0
LINE
  5
781F
330
76EB
100
AcDbEntity
  8
标注
370
    -2
100
AcDbLine
 10
1126.384445311588
 20
172.9614609016491
 30
0.0
 11
1126.384445311588
 21
175.6077642848883
 31
0.0
  0
SOLID
  5
7820
330
76EB
100
AcDbEntity
  8
标注
100
AcDbTrace
 10
1126.276111978254
 20
179.6020553898191
 30
0.0
 11
1126.492778644921
 21
179.6020553898191
 31
0.0
 12
1126.384445311588
 22
180.2520553898191
 32
0.0
 13
1126.384445311588
 23
180.2520553898191
 33
0.0
  0
SOLID
  5
7821
330
76EB
100
AcDbEntity
  8
标注
100
AcDbTrace
 10
1126.276111978254
 20
172.9614609016491
 30
0.0
 11
1126.492778644921
 21
172.9614609016491
 31
0.0
 12
1126.384445311588
 22
172.3114609016493
 32
0.0
 13
1126.384445311588
 23
172.3114609016493
 33
0.0
  0
MTEXT
  5
7822
330
76EB
100
AcDbEntity
  8
标注
100
AcDbMText
 10
1126.384445311588
 20
176.2817581457344
 30
0.0
 40
0.65
 41
0.0
 46
0.0
 71
     5
 72
     1
  1
\A1;8"
 11
0.0000000000000001
 21
1.0
 31
0.0
 73
     1
 44
1.0
  0
POINT
  5
7823
330
76EB
100
AcDbEntity
  8
DEFPOINTS
 62
     0
100
AcDbPoint
 10
1125.219037908293
 20
180.2520553898191
 30
0.0
  0
POINT
  5
7824
330
76EB
100
AcDbEntity
  8
DEFPOINTS
 62
     0
100
AcDbPoint
 10
1124.3299719636
 20
172.3114609016493
 30
0.0
  0
POINT
  5
7825
330
76EB
100
AcDbEntity
  8
DEFPOINTS
 62
     0
100
AcDbPoint
 10
1126.384445311588
 20
172.3114609016493
 30
0.0
  0
ENDBLK
  5
76ED
330
76EB
100
AcDbEntity
  8
0
100
AcDbBlockEnd
  0
BLOCK
  5
770E
330
770D
100
AcDbEntity
  8
0
100
AcDbBlockBegin
  2
*D10
 70
     1
 10
0.0
 20
0.0
 30
0.0
  3
*D10
  1

  0
LINE
  5
7826
330
770D
100
AcDbEntity
  8
标注
370
    -2
100
AcDbLine
 10
1092.339037908409
 20
180.2520553898191
 30
0.0
 11
1090.297624076173
 21
180.2520553898191
 31
0.0
  0
LINE
  5
7827
330
770D
100
AcDbEntity
  8
标注
370
    -2
100
AcDbLine
 10
1092.476586291607
 20
170.1897237893847
 30
0.0
 11
1090.297624076173
 21
170.1897237893847
 31
0.0
  0
LINE
  5
7828
330
770D
100
AcDbEntity
  8
标注
370
    -2
100
AcDbLine
 10
1090.617624076173
 20
179.6020553898191
 30
0.0
 11
1090.617624076173
 21
176.1163534368052
 31
0.0
  0
LINE
  5
7829
330
770D
100
AcDbEntity
  8
标注
370
    -2
100
AcDbLine
 10
1090.617624076173
 20
170.8397237893848
 30
0.0
 11
1090.617624076173
 21
174.3254257423986
 31
0.0
  0
SOLID
  5
782A
330
770D
100
AcDbEntity
  8
标注
100
AcDbTrace
 10
1090.509290742839
 20
179.6020553898191
 30
0.0
 11
1090.725957409506
 21
179.6020553898191
 31
0.0
 12
1090.617624076173
 22
180.2520553898191
 32
0.0
 13
1090.617624076173
 23
180.2520553898191
 33
0.0
  0
SOLID
  5
782B
330
770D
100
AcDbEntity
  8
标注
100
AcDbTrace
 10
1090.509290742839
 20
170.8397237893848
 30
0.0
 11
1090.725957409506
 21
170.8397237893848
 31
0.0
 12
1090.617624076173
 22
170.1897237893847
 32
0.0
 13
1090.617624076173
 23
170.1897237893847
 33
0.0
  0
MTEXT
  5
782C
330
770D
100
AcDbEntity
  8
标注
100
AcDbMText
 10
1090.617624076173
 20
175.2208895896021
 30
0.0
 40
0.65
 41
0.0
 46
0.0
 71
     5
 72
     1
  1
\A1;10"
 11
0.0000000000000001
 21
1.0
 31
0.0
 73
     1
 44
1.0
  0
POINT
  5
782D
330
770D
100
AcDbEntity
  8
DEFPOINTS
 62
     0
100
AcDbPoint
 10
1093.219037908409
 20
180.2520553898191
 30
0.0
  0
POINT
  5
782E
330
770D
100
AcDbEntity
  8
DEFPOINTS
 62
     0
100
AcDbPoint
 10
1093.356586291608
 20
170.1897237893847
 30
0.0
  0
POINT
  5
782F
330
770D
100
AcDbEntity
  8
DEFPOINTS
 62
     0
100
AcDbPoint
 10
1090.617624076173
 20
170.1897237893847
 30
0.0
  0
ENDBLK
  5
770F
330
770D
100
AcDbEntity
  8
0
100
AcDbBlockEnd
  0
BLOCK
  5
7746
330
7745
100
AcDbEntity
  8
0
100
AcDbBlockBegin
  2
*D11
 70
     1
 10
0.0
 20
0.0
 30
0.0
  3
*D11
  1

  0
LINE
  5
7830
330
7745
100
AcDbEntity
  8
标注
370
    -2
100
AcDbLine
 10
1093.802240785223
 20
170.0507709463767
 30
0.0
 11
1093.297475771884
 21
169.6412440470058
 31
0.0
  0
MTEXT
  5
7831
330
7745
100
AcDbEntity
  8
标注
100
AcDbMText
 10
1095.198511755165
 20
171.6841163083834
 30
0.0
 40
0.65
 41
0.0
 46
0.0
 71
     5
 72
     1
  1
\A1;R3/8"
 11
0.7765615589838496
 21
0.6300413836475928
 31
0.0
 73
     1
 44
1.0
  0
LINE
  5
7832
330
7745
100
AcDbEntity
  8
标注
370
    -2
100
AcDbLine
 10
1094.6127386958
 20
170.7083456345843
 30
0.0
 11
1094.307005798563
 21
170.4602978457476
 31
0.0
  0
SOLID
  5
7833
330
7745
100
AcDbEntity
  8
标注
100
AcDbTrace
 10
1093.733986301995
 20
170.1348984486
 30
0.0
 11
1093.870495268451
 21
169.9666434441534
 31
0.0
 12
1094.307005798563
 22
170.4602978457476
 32
0.0
 13
1094.307005798563
 23
170.4602978457476
 33
0.0
  0
POINT
  5
7834
330
7745
100
AcDbEntity
  8
DEFPOINTS
 62
     0
100
AcDbPoint
 10
1094.307005798563
 20
170.4602978457476
 30
0.0
  0
POINT
  5
7835
330
7745
100
AcDbEntity
  8
DEFPOINTS
 62
     0
100
AcDbPoint
 10
1094.6127386958
 20
170.7083456345843
 30
0.0
  0
ENDBLK
  5
7747
330
7745
100
AcDbEntity
  8
0
100
AcDbBlockEnd
  0
BLOCK
  5
7750
330
774F
100
AcDbEntity
  8
0
100
AcDbBlockBegin
  2
*D12
 70
     1
 10
0.0
 20
0.0
 30
0.0
  3
*D12
  1

  0
LINE
  5
7836
330
774F
100
AcDbEntity
  8
标注
370
    -2
100
AcDbLine
 10
1112.872264177389
 20
171.9753720636373
 30
0.0
 11
1112.411108602228
 21
171.5172939747729
 31
0.0
  0
MTEXT
  5
7837
330
774F
100
AcDbEntity
  8
标注
100
AcDbMText
 10
1114.150678800255
 20
173.7005345679518
 30
0.0
 40
0.65
 41
0.0
 46
0.0
 71
     5
 72
     1
  1
\A1;R3/8"
 11
0.7094701156328542
 21
0.7047355213297429
 31
0.0
 73
     1
 44
1.0
  0
LINE
  5
7838
330
774F
100
AcDbEntity
  8
标注
370
    -2
100
AcDbLine
 10
1113.612738695712
 20
172.7109050821579
 30
0.0
 11
1113.333419752551
 21
172.4334501525015
 31
0.0
  0
SOLID
  5
7839
330
774F
100
AcDbEntity
  8
标注
100
AcDbTrace
 10
1112.795917829245
 20
172.0522313261641
 30
0.0
 11
1112.948610525533
 21
171.8985128011103
 31
0.0
 12
1113.333419752551
 22
172.4334501525015
 32
0.0
 13
1113.333419752551
 23
172.4334501525015
 33
0.0
  0
POINT
  5
783A
330
774F
100
AcDbEntity
  8
DEFPOINTS
 62
     0
100
AcDbPoint
 10
1113.333419752551
 20
172.4334501525015
 30
0.0
  0
POINT
  5
783B
330
774F
100
AcDbEntity
  8
DEFPOINTS
 62
     0
100
AcDbPoint
 10
1113.612738695712
 20
172.7109050821579
 30
0.0
  0
ENDBLK
  5
7751
330
774F
100
AcDbEntity
  8
0
100
AcDbBlockEnd
  0
BLOCK
  5
7766
330
7765
100
AcDbEntity
  8
0
100
AcDbBlockBegin
  2
*D13
 70
     1
 10
0.0
 20
0.0
 30
0.0
  3
*D13
  1

  0
LINE
  5
783C
330
7765
100
AcDbEntity
  8
标注
370
    -2
100
AcDbLine
 10
1094.140297750931
 20
102.9269107860633
 30
0.0
 11
1094.140297750931
 21
100.45367402825
 31
0.0
  0
LINE
  5
783D
330
7765
100
AcDbEntity
  8
标注
370
    -2
100
AcDbLine
 10
1124.297778065771
 20
102.9269107860633
 30
0.0
 11
1124.297778065771
 21
100.45367402825
 31
0.0
  0
LINE
  5
783E
330
7765
100
AcDbEntity
  8
标注
370
    -2
100
AcDbLine
 10
1094.790297750931
 20
100.77367402825
 30
0.0
 11
1107.535903529088
 21
100.77367402825
 31
0.0
  0
LINE
  5
783F
330
7765
100
AcDbEntity
  8
标注
370
    -2
100
AcDbLine
 10
1123.64777806577
 20
100.77367402825
 30
0.0
 11
1110.902172287614
 21
100.77367402825
 31
0.0
  0
SOLID
  5
7840
330
7765
100
AcDbEntity
  8
标注
100
AcDbTrace
 10
1094.790297750931
 20
100.8820073615833
 30
0.0
 11
1094.790297750931
 21
100.6653406949167
 31
0.0
 12
1094.140297750931
 22
100.77367402825
 32
0.0
 13
1094.140297750931
 23
100.77367402825
 33
0.0
  0
SOLID
  5
7841
330
7765
100
AcDbEntity
  8
标注
100
AcDbTrace
 10
1123.64777806577
 20
100.8820073615833
 30
0.0
 11
1123.64777806577
 21
100.6653406949167
 31
0.0
 12
1124.297778065771
 22
100.77367402825
 32
0.0
 13
1124.297778065771
 23
100.77367402825
 33
0.0
  0
MTEXT
  5
7842
330
7765
100
AcDbEntity
  8
标注
100
AcDbMText
 10
1109.219037908351
 20
100.77367402825
 30
0.0
 40
0.65
 41
0.0
 46
0.0
 71
     5
 72
     1
  1
\A1;30 1/8"
 73
     1
 44
1.0
  0
POINT
  5
7843
330
7765
100
AcDbEntity
  8
DEFPOINTS
 62
     0
100
AcDbPoint
 10
1094.140297750931
 20
103.8069107860633
 30
0.0
  0
POINT
  5
7844
330
7765
100
AcDbEntity
  8
DEFPOINTS
 62
     0
100
AcDbPoint
 10
1124.297778065771
 20
103.8069107860633
 30
0.0
  0
POINT
  5
7845
330
7765
100
AcDbEntity
  8
DEFPOINTS
 62
     0
100
AcDbPoint
 10
1124.297778065771
 20
100.77367402825
 30
0.0
  0
ENDBLK
  5
7767
330
7765
100
AcDbEntity
  8
0
100
AcDbBlockEnd
  0
BLOCK
  5
7774
330
7773
100
AcDbEntity
  8
0
100
AcDbBlockBegin
  2
*D14
 70
     1
 10
0.0
 20
0.0
 30
0.0
  3
*D14
  1

  0
LINE
  5
7846
330
7773
100
AcDbEntity
  8
标注
370
    -2
100
AcDbLine
 10
1124.705337120903
 20
103.3344698411661
 30
0.0
 11
1126.861296074281
 21
103.3344698411661
 31
0.0
  0
LINE
  5
7847
330
7773
100
AcDbEntity
  8
标注
370
    -2
100
AcDbLine
 10
1124.705337120903
 20
118.4919501560758
 30
0.0
 11
1126.861296074281
 21
118.4919501560758
 31
0.0
  0
LINE
  5
7848
330
7773
100
AcDbEntity
  8
标注
370
    -2
100
AcDbLine
 10
1126.541296074281
 20
103.9844698411661
 30
0.0
 11
1126.541296074281
 21
109.2604473792485
 31
0.0
  0
LINE
  5
7849
330
7773
100
AcDbEntity
  8
标注
370
    -2
100
AcDbLine
 10
1126.541296074281
 20
117.8419501560758
 30
0.0
 11
1126.541296074281
 21
112.5659726179934
 31
0.0
  0
SOLID
  5
784A
330
7773
100
AcDbEntity
  8
标注
100
AcDbTrace
 10
1126.432962740947
 20
103.9844698411661
 30
0.0
 11
1126.649629407614
 21
103.9844698411661
 31
0.0
 12
1126.541296074281
 22
103.3344698411661
 32
0.0
 13
1126.541296074281
 23
103.3344698411661
 33
0.0
  0
SOLID
  5
784B
330
7773
100
AcDbEntity
  8
标注
100
AcDbTrace
 10
1126.432962740947
 20
117.8419501560758
 30
0.0
 11
1126.649629407614
 21
117.8419501560758
 31
0.0
 12
1126.541296074281
 22
118.4919501560758
 32
0.0
 13
1126.541296074281
 23
118.4919501560758
 33
0.0
  0
MTEXT
  5
784C
330
7773
100
AcDbEntity
  8
标注
100
AcDbMText
 10
1126.541296074281
 20
110.9132099986211
 30
0.0
 40
0.65
 41
0.0
 46
0.0
 71
     5
 72
     1
  1
\A1;15 1/8"
 11
0.0000000000000001
 21
1.0
 31
0.0
 73
     1
 44
1.0
  0
POINT
  5
784D
330
7773
100
AcDbEntity
  8
DEFPOINTS
 62
     0
100
AcDbPoint
 10
1123.825337120903
 20
103.3344698411661
 30
0.0
  0
POINT
  5
784E
330
7773
100
AcDbEntity
  8
DEFPOINTS
 62
     0
100
AcDbPoint
 10
1123.825337120903
 20
118.4919501560758
 30
0.0
  0
POINT
  5
784F
330
7773
100
AcDbEntity
  8
DEFPOINTS
 62
     0
100
AcDbPoint
 10
1126.541296074281
 20
118.4919501560758
 30
0.0
  0
ENDBLK
  5
7775
330
7773
100
AcDbEntity
  8
0
100
AcDbBlockEnd
  0
BLOCK
  5
7782
330
7781
100
AcDbEntity
  8
0
100
AcDbBlockBegin
  2
*D15
 70
     1
 10
0.0
 20
0.0
 30
0.0
  3
*D15
  1

  0
LINE
  5
7850
330
7781
100
AcDbEntity
  8
标注
370
    -2
100
AcDbLine
 10
1093.732738695799
 20
121.4919501560639
 30
0.0
 11
1091.348689843156
 21
121.4919501560639
 31
0.0
  0
LINE
  5
7851
330
7781
100
AcDbEntity
  8
标注
370
    -2
100
AcDbLine
 10
1093.732738695799
 20
103.3344698411661
 30
0.0
 11
1091.348689843156
 21
103.3344698411661
 31
0.0
  0
LINE
  5
7852
330
7781
100
AcDbEntity
  8
标注
370
    -2
100
AcDbLine
 10
1091.668689843156
 20
120.8419501560639
 30
0.0
 11
1091.668689843156
 21
114.0659726179874
 31
0.0
  0
LINE
  5
7853
330
7781
100
AcDbEntity
  8
标注
370
    -2
100
AcDbLine
 10
1091.668689843156
 20
103.9844698411661
 30
0.0
 11
1091.668689843156
 21
110.7604473792426
 31
0.0
  0
SOLID
  5
7854
330
7781
100
AcDbEntity
  8
标注
100
AcDbTrace
 10
1091.560356509823
 20
120.8419501560639
 30
0.0
 11
1091.77702317649
 21
120.8419501560639
 31
0.0
 12
1091.668689843156
 22
121.4919501560639
 32
0.0
 13
1091.668689843156
 23
121.4919501560639
 33
0.0
  0
SOLID
  5
7855
330
7781
100
AcDbEntity
  8
标注
100
AcDbTrace
 10
1091.560356509823
 20
103.9844698411661
 30
0.0
 11
1091.77702317649
 21
103.9844698411661
 31
0.0
 12
1091.668689843156
 22
103.3344698411661
 32
0.0
 13
1091.668689843156
 23
103.3344698411661
 33
0.0
  0
MTEXT
  5
7856
330
7781
100
AcDbEntity
  8
标注
100
AcDbMText
 10
1091.668689843156
 20
112.4132099986152
 30
0.0
 40
0.65
 41
0.0
 46
0.0
 71
     5
 72
     1
  1
\A1;18 1/8"
 11
0.0000000000000001
 21
1.0
 31
0.0
 73
     1
 44
1.0
  0
POINT
  5
7857
330
7781
100
AcDbEntity
  8
DEFPOINTS
 62
     0
100
AcDbPoint
 10
1094.612738695799
 20
121.4919501560639
 30
0.0
  0
POINT
  5
7858
330
7781
100
AcDbEntity
  8
DEFPOINTS
 62
     0
100
AcDbPoint
 10
1094.612738695799
 20
103.3344698411661
 30
0.0
  0
POINT
  5
7859
330
7781
100
AcDbEntity
  8
DEFPOINTS
 62
     0
100
AcDbPoint
 10
1091.668689843156
 20
103.3344698411661
 30
0.0
  0
ENDBLK
  5
7783
330
7781
100
AcDbEntity
  8
0
100
AcDbBlockEnd
  0
BLOCK
  5
779C
330
779B
100
AcDbEntity
  8
0
100
AcDbBlockBegin
  2
*D16
 70
     1
 10
0.0
 20
0.0
 30
0.0
  3
*D16
  1

  0
LINE
  5
785A
330
779B
100
AcDbEntity
  8
标注
370
    -2
100
AcDbLine
 10
1094.000393770082
 20
102.8662156352885
 30
0.0
 11
1093.645787852032
 21
102.3214637258071
 31
0.0
  0
MTEXT
  5
785B
330
779B
100
AcDbEntity
  8
标注
100
AcDbMText
 10
1095.007723061172
 20
104.9823665217169
 30
0.0
 40
0.65
 41
0.0
 46
0.0
 71
     5
 72
     1
  1
\A1;4-R1/2"
 11
0.5455475662312495
 21
0.8380798607407056
 31
0.0
 73
     1
 44
1.0
  0
LINE
  5
785C
330
779B
100
AcDbEntity
  8
标注
370
    -2
100
AcDbLine
 10
1094.6127386958
 20
103.8069107860634
 30
0.0
 11
1094.354999688132
 21
103.4109675447701
 31
0.0
  0
SOLID
  5
785D
330
779B
100
AcDbEntity
  8
标注
100
AcDbTrace
 10
1093.909601785168
 20
102.9253166216303
 30
0.0
 11
1094.091185754995
 21
102.8071146489468
 31
0.0
 12
1094.354999688132
 22
103.4109675447701
 32
0.0
 13
1094.354999688132
 23
103.4109675447701
 33
0.0
  0
POINT
  5
785E
330
779B
100
AcDbEntity
  8
DEFPOINTS
 62
     0
100
AcDbPoint
 10
1094.354999688132
 20
103.4109675447701
 30
0.0
  0
POINT
  5
785F
330
779B
100
AcDbEntity
  8
DEFPOINTS
 62
     0
100
AcDbPoint
 10
1094.6127386958
 20
103.8069107860634
 30
0.0
  0
ENDBLK
  5
779D
330
779B
100
AcDbEntity
  8
0
100
AcDbBlockEnd
  0
BLOCK
  5
77A6
330
77A5
100
AcDbEntity
  8
0
100
AcDbBlockBegin
  2
*D17
 70
     1
 10
0.0
 20
0.0
 30
0.0
  3
*D17
  1

  0
LINE
  5
7860
330
77A5
100
AcDbEntity
  8
标注
370
    -2
100
AcDbLine
 10
1111.886533972846
 20
117.992092217273
 30
0.0
 11
1111.561771314293
 21
117.429038742362
 31
0.0
  0
MTEXT
  5
7861
330
77A5
100
AcDbEntity
  8
标注
100
AcDbMText
 10
1112.539704507055
 20
120.0034754309798
 30
0.0
 40
0.65
 41
0.0
 46
0.0
 71
     5
 72
     1
  1
\A1;R1/2"
 11
0.4996348593125621
 21
0.8662361152478672
 31
0.0
 73
     1
 44
1.0
  0
LINE
  5
7862
330
77A5
100
AcDbEntity
  8
标注
370
    -2
100
AcDbLine
 10
1112.447344596428
 20
118.9643911009611
 30
0.0
 11
1112.2112966314
 21
118.5551456921842
 31
0.0
  0
SOLID
  5
7863
330
77A5
100
AcDbEntity
  8
标注
100
AcDbTrace
 10
1111.792691727028
 20
118.0462193270319
 30
0.0
 11
1111.980376218665
 21
117.9379651075142
 31
0.0
 12
1112.2112966314
 22
118.5551456921842
 32
0.0
 13
1112.2112966314
 23
118.5551456921842
 33
0.0
  0
POINT
  5
7864
330
77A5
100
AcDbEntity
  8
DEFPOINTS
 62
     0
100
AcDbPoint
 10
1112.2112966314
 20
118.5551456921842
 30
0.0
  0
POINT
  5
7865
330
77A5
100
AcDbEntity
  8
DEFPOINTS
 62
     0
100
AcDbPoint
 10
1112.447344596428
 20
118.9643911009611
 30
0.0
  0
ENDBLK
  5
77A7
330
77A5
100
AcDbEntity
  8
0
100
AcDbBlockEnd
  0
BLOCK
  5
77B0
330
77AF
100
AcDbEntity
  8
0
100
AcDbBlockBegin
  2
*D18
 70
     1
 10
0.0
 20
0.0
 30
0.0
  3
*D18
  1

  0
LINE
  5
7866
330
77AF
100
AcDbEntity
  8
标注
370
    -2
100
AcDbLine
 10
1109.435205492657
 20
122.075940857151
 30
0.0
 11
1109.654823695732
 21
122.6877151986184
 31
0.0
  0
MTEXT
  5
7867
330
77AF
100
AcDbEntity
  8
标注
100
AcDbMText
 10
1109.07288571938
 20
122.8917439178633
 30
0.0
 40
0.65
 41
0.0
 46
0.0
 71
     5
 72
     1
  1
\A1;R1/2"
 11
0.3378741585777782
 21
0.941191294565222
 31
0.0
 73
     1
 44
1.0
  0
LINE
  5
7868
330
77AF
100
AcDbEntity
  8
标注
370
    -2
100
AcDbLine
 10
1109.055961702852
 20
121.0195092111667
 30
0.0
 11
1109.215587289581
 21
121.4641665156836
 31
0.0
  0
SOLID
  5
7869
330
77AF
100
AcDbEntity
  8
标注
100
AcDbTrace
 10
1109.333243102412
 20
122.1125438909969
 30
0.0
 11
1109.537167882901
 21
122.0393378233051
 31
0.0
 12
1109.215587289581
 22
121.4641665156836
 32
0.0
 13
1109.215587289581
 23
121.4641665156836
 33
0.0
  0
POINT
  5
786A
330
77AF
100
AcDbEntity
  8
DEFPOINTS
 62
     0
100
AcDbPoint
 10
1109.215587289581
 20
121.4641665156836
 30
0.0
  0
POINT
  5
786B
330
77AF
100
AcDbEntity
  8
DEFPOINTS
 62
     0
100
AcDbPoint
 10
1109.055961702852
 20
121.0195092111667
 30
0.0
  0
ENDBLK
  5
77B1
330
77AF
100
AcDbEntity
  8
0
100
AcDbBlockEnd
  0
BLOCK
  5
7956
330
7955
100
AcDbEntity
  8
0
100
AcDbBlockBegin
  2
*D19
 70
     1
 10
0.0
 20
0.0
 30
0.0
  3
*D19
  1

  0
LINE
  5
7AE8
330
7955
100
AcDbEntity
  8
标注
370
    -2
100
AcDbLine
 10
1135.362178664015
 20
138.162998433621
 30
0.0
 11
1135.362178664015
 21
135.1913252291895
 31
0.0
  0
LINE
  5
7AE9
330
7955
100
AcDbEntity
  8
标注
370
    -2
100
AcDbLine
 10
1117.362178664093
 20
138.162998433621
 30
0.0
 11
1117.362178664093
 21
135.1913252291895
 31
0.0
  0
LINE
  5
7AEA
330
7955
100
AcDbEntity
  8
标注
370
    -2
100
AcDbLine
 10
1134.712178664015
 20
135.5113252291895
 30
0.0
 11
1127.257642511257
 21
135.5113252291895
 31
0.0
  0
LINE
  5
7AEB
330
7955
100
AcDbEntity
  8
标注
370
    -2
100
AcDbLine
 10
1118.012178664093
 20
135.5113252291895
 30
0.0
 11
1125.46671481685
 21
135.5113252291895
 31
0.0
  0
SOLID
  5
7AEC
330
7955
100
AcDbEntity
  8
标注
100
AcDbTrace
 10
1134.712178664015
 20
135.6196585625228
 30
0.0
 11
1134.712178664015
 21
135.4029918958562
 31
0.0
 12
1135.362178664015
 22
135.5113252291895
 32
0.0
 13
1135.362178664015
 23
135.5113252291895
 33
0.0
  0
SOLID
  5
7AED
330
7955
100
AcDbEntity
  8
标注
100
AcDbTrace
 10
1118.012178664093
 20
135.6196585625228
 30
0.0
 11
1118.012178664093
 21
135.4029918958562
 31
0.0
 12
1117.362178664093
 22
135.5113252291895
 32
0.0
 13
1117.362178664093
 23
135.5113252291895
 33
0.0
  0
MTEXT
  5
7AEE
330
7955
100
AcDbEntity
  8
标注
100
AcDbMText
 10
1126.362178664054
 20
135.5113252291895
 30
0.0
 40
0.65
 41
0.0
 46
0.0
 71
     5
 72
     1
  1
\A1;18"
 73
     1
 44
1.0
  0
POINT
  5
7AEF
330
7955
100
AcDbEntity
  8
DEFPOINTS
 62
     0
100
AcDbPoint
 10
1135.362178664015
 20
139.0429984336211
 30
0.0
  0
POINT
  5
7AF0
330
7955
100
AcDbEntity
  8
DEFPOINTS
 62
     0
100
AcDbPoint
 10
1117.362178664093
 20
139.0429984336211
 30
0.0
  0
POINT
  5
7AF1
330
7955
100
AcDbEntity
  8
DEFPOINTS
 62
     0
100
AcDbPoint
 10
1117.362178664093
 20
135.5113252291895
 30
0.0
  0
ENDBLK
  5
7957
330
7955
100
AcDbEntity
  8
0
100
AcDbBlockEnd
  0
BLOCK
  5
7963
330
7962
100
AcDbEntity
  8
0
100
AcDbBlockBegin
  2
*D20
 70
     1
 10
0.0
 20
0.0
 30
0.0
  3
*D20
  1

  0
LINE
  5
7AF2
330
7962
100
AcDbEntity
  8
标注
370
    -2
100
AcDbLine
 10
1116.362178664083
 20
138.162998433621
 30
0.0
 11
1116.362178664083
 21
135.1913252291895
 31
0.0
  0
LINE
  5
7AF3
330
7962
100
AcDbEntity
  8
标注
370
    -2
100
AcDbLine
 10
1105.362178664131
 20
138.162998433621
 30
0.0
 11
1105.362178664131
 21
135.1913252291895
 31
0.0
  0
LINE
  5
7AF4
330
7962
100
AcDbEntity
  8
标注
370
    -2
100
AcDbLine
 10
1115.712178664083
 20
135.5113252291895
 30
0.0
 11
1111.75764251131
 21
135.5113252291895
 31
0.0
  0
LINE
  5
7AF5
330
7962
100
AcDbEntity
  8
标注
370
    -2
100
AcDbLine
 10
1106.012178664131
 20
135.5113252291895
 30
0.0
 11
1109.966714816904
 21
135.5113252291895
 31
0.0
  0
SOLID
  5
7AF6
330
7962
100
AcDbEntity
  8
标注
100
AcDbTrace
 10
1115.712178664083
 20
135.6196585625228
 30
0.0
 11
1115.712178664083
 21
135.4029918958562
 31
0.0
 12
1116.362178664083
 22
135.5113252291895
 32
0.0
 13
1116.362178664083
 23
135.5113252291895
 33
0.0
  0
SOLID
  5
7AF7
330
7962
100
AcDbEntity
  8
标注
100
AcDbTrace
 10
1106.012178664131
 20
135.6196585625228
 30
0.0
 11
1106.012178664131
 21
135.4029918958562
 31
0.0
 12
1105.362178664131
 22
135.5113252291895
 32
0.0
 13
1105.362178664131
 23
135.5113252291895
 33
0.0
  0
MTEXT
  5
7AF8
330
7962
100
AcDbEntity
  8
标注
100
AcDbMText
 10
1110.862178664107
 20
135.5113252291895
 30
0.0
 40
0.65
 41
0.0
 46
0.0
 71
     5
 72
     1
  1
\A1;11"
 73
     1
 44
1.0
  0
POINT
  5
7AF9
330
7962
100
AcDbEntity
  8
DEFPOINTS
 62
     0
100
AcDbPoint
 10
1116.362178664083
 20
139.0429984336211
 30
0.0
  0
POINT
  5
7AFA
330
7962
100
AcDbEntity
  8
DEFPOINTS
 62
     0
100
AcDbPoint
 10
1105.362178664131
 20
139.0429984336211
 30
0.0
  0
POINT
  5
7AFB
330
7962
100
AcDbEntity
  8
DEFPOINTS
 62
     0
100
AcDbPoint
 10
1105.362178664131
 20
135.5113252291895
 30
0.0
  0
ENDBLK
  5
7964
330
7962
100
AcDbEntity
  8
0
100
AcDbBlockEnd
  0
BLOCK
  5
7970
330
796F
100
AcDbEntity
  8
0
100
AcDbBlockBegin
  2
*D21
 70
     1
 10
0.0
 20
0.0
 30
0.0
  3
*D21
  1

  0
LINE
  5
7AFC
330
796F
100
AcDbEntity
  8
标注
370
    -2
100
AcDbLine
 10
1135.848477876596
 20
138.6492976462309
 30
0.0
 11
1138.852883299497
 21
138.6492976462309
 31
0.0
  0
LINE
  5
7AFD
330
796F
100
AcDbEntity
  8
标注
370
    -2
100
AcDbLine
 10
1135.848477876596
 20
156.6492976461727
 30
0.0
 11
1138.852883299497
 21
156.6492976461727
 31
0.0
  0
LINE
  5
7AFE
330
796F
100
AcDbEntity
  8
标注
370
    -2
100
AcDbLine
 10
1138.532883299497
 20
139.2992976462309
 30
0.0
 11
1138.532883299497
 21
146.7538337989986
 31
0.0
  0
LINE
  5
7AFF
330
796F
100
AcDbEntity
  8
标注
370
    -2
100
AcDbLine
 10
1138.532883299497
 20
155.9992976461727
 30
0.0
 11
1138.532883299497
 21
148.5447614934051
 31
0.0
  0
SOLID
  5
7B00
330
796F
100
AcDbEntity
  8
标注
100
AcDbTrace
 10
1138.424549966164
 20
139.2992976462309
 30
0.0
 11
1138.641216632831
 21
139.2992976462309
 31
0.0
 12
1138.532883299497
 22
138.6492976462309
 32
0.0
 13
1138.532883299497
 23
138.6492976462309
 33
0.0
  0
SOLID
  5
7B01
330
796F
100
AcDbEntity
  8
标注
100
AcDbTrace
 10
1138.424549966164
 20
155.9992976461727
 30
0.0
 11
1138.641216632831
 21
155.9992976461727
 31
0.0
 12
1138.532883299497
 22
156.6492976461727
 32
0.0
 13
1138.532883299497
 23
156.6492976461727
 33
0.0
  0
MTEXT
  5
7B02
330
796F
100
AcDbEntity
  8
标注
100
AcDbMText
 10
1138.532883299497
 20
147.649297646202
 30
0.0
 40
0.65
 41
0.0
 46
0.0
 71
     5
 72
     1
  1
\A1;18"
 11
0.0000000000000001
 21
1.0
 31
0.0
 73
     1
 44
1.0
  0
POINT
  5
7B03
330
796F
100
AcDbEntity
  8
DEFPOINTS
 62
     0
100
AcDbPoint
 10
1134.968477876596
 20
138.6492976462309
 30
0.0
  0
POINT
  5
7B04
330
796F
100
AcDbEntity
  8
DEFPOINTS
 62
     0
100
AcDbPoint
 10
1134.968477876596
 20
156.6492976461727
 30
0.0
  0
POINT
  5
7B05
330
796F
100
AcDbEntity
  8
DEFPOINTS
 62
     0
100
AcDbPoint
 10
1138.532883299497
 20
156.6492976461727
 30
0.0
  0
ENDBLK
  5
7971
330
796F
100
AcDbEntity
  8
0
100
AcDbBlockEnd
  0
BLOCK
  5
797D
330
797C
100
AcDbEntity
  8
0
100
AcDbBlockBegin
  2
*D22
 70
     1
 10
0.0
 20
0.0
 30
0.0
  3
*D22
  1

  0
LINE
  5
7B06
330
797C
100
AcDbEntity
  8
标注
370
    -2
100
AcDbLine
 10
1136.242178664015
 20
137.6492976462309
 30
0.0
 11
1140.952116510427
 21
137.6492976462309
 31
0.0
  0
LINE
  5
7B07
330
797C
100
AcDbEntity
  8
标注
370
    -2
100
AcDbLine
 10
1136.242178664129
 20
157.6492976461445
 30
0.0
 11
1140.952116510427
 21
157.6492976461445
 31
0.0
  0
LINE
  5
7B08
330
797C
100
AcDbEntity
  8
标注
370
    -2
100
AcDbLine
 10
1140.632116510427
 20
138.2992976462309
 30
0.0
 11
1140.632116510427
 21
146.7176980554645
 31
0.0
  0
LINE
  5
7B09
330
797C
100
AcDbEntity
  8
标注
370
    -2
100
AcDbLine
 10
1140.632116510427
 20
156.9992976461445
 30
0.0
 11
1140.632116510427
 21
148.5808972369108
 31
0.0
  0
SOLID
  5
7B0A
330
797C
100
AcDbEntity
  8
标注
100
AcDbTrace
 10
1140.523783177094
 20
138.2992976462309
 30
0.0
 11
1140.740449843761
 21
138.2992976462309
 31
0.0
 12
1140.632116510427
 22
137.6492976462309
 32
0.0
 13
1140.632116510427
 23
137.6492976462309
 33
0.0
  0
SOLID
  5
7B0B
330
797C
100
AcDbEntity
  8
标注
100
AcDbTrace
 10
1140.523783177094
 20
156.9992976461445
 30
0.0
 11
1140.740449843761
 21
156.9992976461445
 31
0.0
 12
1140.632116510427
 22
157.6492976461445
 32
0.0
 13
1140.632116510427
 23
157.6492976461445
 33
0.0
  0
MTEXT
  5
7B0C
330
797C
100
AcDbEntity
  8
标注
100
AcDbMText
 10
1140.632116510427
 20
147.6492976461879
 30
0.0
 40
0.65
 41
0.0
 46
0.0
 71
     5
 72
     1
  1
\A1;20"
 11
0.0000000000000001
 21
1.0
 31
0.0
 73
     1
 44
1.0
  0
POINT
  5
7B0D
330
797C
100
AcDbEntity
  8
DEFPOINTS
 62
     0
100
AcDbPoint
 10
1135.362178664015
 20
137.6492976462309
 30
0.0
  0
POINT
  5
7B0E
330
797C
100
AcDbEntity
  8
DEFPOINTS
 62
     0
100
AcDbPoint
 10
1135.362178664128
 20
157.6492976461445
 30
0.0
  0
POINT
  5
7B0F
330
797C
100
AcDbEntity
  8
DEFPOINTS
 62
     0
100
AcDbPoint
 10
1140.632116510427
 20
157.6492976461445
 30
0.0
  0
ENDBLK
  5
797E
330
797C
100
AcDbEntity
  8
0
100
AcDbBlockEnd
  0
BLOCK
  5
798A
330
7989
100
AcDbEntity
  8
0
100
AcDbBlockBegin
  2
*D23
 70
     1
 10
0.0
 20
0.0
 30
0.0
  3
*D23
  1

  0
LINE
  5
7B10
330
7989
100
AcDbEntity
  8
标注
370
    -2
100
AcDbLine
 10
1104.875879451521
 20
138.6492976462309
 30
0.0
 11
1102.35095112321
 21
138.6492976462309
 31
0.0
  0
LINE
  5
7B11
330
7989
100
AcDbEntity
  8
标注
370
    -2
100
AcDbLine
 10
1104.875879451521
 20
153.6492976461727
 30
0.0
 11
1102.35095112321
 21
153.6492976461727
 31
0.0
  0
LINE
  5
7B12
330
7989
100
AcDbEntity
  8
标注
370
    -2
100
AcDbLine
 10
1102.67095112321
 20
139.2992976462309
 30
0.0
 11
1102.67095112321
 21
145.2538337989986
 31
0.0
  0
LINE
  5
7B13
330
7989
100
AcDbEntity
  8
标注
370
    -2
100
AcDbLine
 10
1102.67095112321
 20
152.9992976461727
 30
0.0
 11
1102.67095112321
 21
147.0447614934051
 31
0.0
  0
SOLID
  5
7B14
330
7989
100
AcDbEntity
  8
标注
100
AcDbTrace
 10
1102.562617789876
 20
139.2992976462309
 30
0.0
 11
1102.779284456543
 21
139.2992976462309
 31
0.0
 12
1102.67095112321
 22
138.6492976462309
 32
0.0
 13
1102.67095112321
 23
138.6492976462309
 33
0.0
  0
SOLID
  5
7B15
330
7989
100
AcDbEntity
  8
标注
100
AcDbTrace
 10
1102.562617789876
 20
152.9992976461727
 30
0.0
 11
1102.779284456543
 21
152.9992976461727
 31
0.0
 12
1102.67095112321
 22
153.6492976461727
 32
0.0
 13
1102.67095112321
 23
153.6492976461727
 33
0.0
  0
MTEXT
  5
7B16
330
7989
100
AcDbEntity
  8
标注
100
AcDbMText
 10
1102.67095112321
 20
146.149297646202
 30
0.0
 40
0.65
 41
0.0
 46
0.0
 71
     5
 72
     1
  1
\A1;15"
 11
0.0000000000000001
 21
1.0
 31
0.0
 73
     1
 44
1.0
  0
POINT
  5
7B17
330
7989
100
AcDbEntity
  8
DEFPOINTS
 62
     0
100
AcDbPoint
 10
1105.755879451521
 20
138.6492976462309
 30
0.0
  0
POINT
  5
7B18
330
7989
100
AcDbEntity
  8
DEFPOINTS
 62
     0
100
AcDbPoint
 10
1105.755879451521
 20
153.6492976461727
 30
0.0
  0
POINT
  5
7B19
330
7989
100
AcDbEntity
  8
DEFPOINTS
 62
     0
100
AcDbPoint
 10
1102.67095112321
 20
153.6492976461727
 30
0.0
  0
ENDBLK
  5
798B
330
7989
100
AcDbEntity
  8
0
100
AcDbBlockEnd
  0
BLOCK
  5
7997
330
7996
100
AcDbEntity
  8
0
100
AcDbBlockBegin
  2
*D24
 70
     1
 10
0.0
 20
0.0
 30
0.0
  3
*D24
  1

  0
LINE
  5
7B1A
330
7996
100
AcDbEntity
  8
标注
370
    -2
100
AcDbLine
 10
1104.482178664131
 20
137.6492976462309
 30
0.0
 11
1100.633971780867
 21
137.6492976462309
 31
0.0
  0
LINE
  5
7B1B
330
7996
100
AcDbEntity
  8
标注
370
    -2
100
AcDbLine
 10
1104.482178664131
 20
154.6492976461727
 30
0.0
 11
1100.633971780867
 21
154.6492976461727
 31
0.0
  0
LINE
  5
7B1C
330
7996
100
AcDbEntity
  8
标注
370
    -2
100
AcDbLine
 10
1100.953971780866
 20
138.2992976462309
 30
0.0
 11
1100.953971780866
 21
145.2538337989986
 31
0.0
  0
LINE
  5
7B1D
330
7996
100
AcDbEntity
  8
标注
370
    -2
100
AcDbLine
 10
1100.953971780866
 20
153.9992976461727
 30
0.0
 11
1100.953971780866
 21
147.0447614934051
 31
0.0
  0
SOLID
  5
7B1E
330
7996
100
AcDbEntity
  8
标注
100
AcDbTrace
 10
1100.845638447533
 20
138.2992976462309
 30
0.0
 11
1101.0623051142
 21
138.2992976462309
 31
0.0
 12
1100.953971780866
 22
137.6492976462309
 32
0.0
 13
1100.953971780866
 23
137.6492976462309
 33
0.0
  0
SOLID
  5
7B1F
330
7996
100
AcDbEntity
  8
标注
100
AcDbTrace
 10
1100.845638447533
 20
153.9992976461727
 30
0.0
 11
1101.0623051142
 21
153.9992976461727
 31
0.0
 12
1100.953971780866
 22
154.6492976461727
 32
0.0
 13
1100.953971780866
 23
154.6492976461727
 33
0.0
  0
MTEXT
  5
7B20
330
7996
100
AcDbEntity
  8
标注
100
AcDbMText
 10
1100.953971780866
 20
146.149297646202
 30
0.0
 40
0.65
 41
0.0
 46
0.0
 71
     5
 72
     1
  1
\A1;17"
 11
0.0000000000000001
 21
1.0
 31
0.0
 73
     1
 44
1.0
  0
POINT
  5
7B21
330
7996
100
AcDbEntity
  8
DEFPOINTS
 62
     0
100
AcDbPoint
 10
1105.362178664131
 20
137.6492976462309
 30
0.0
  0
POINT
  5
7B22
330
7996
100
AcDbEntity
  8
DEFPOINTS
 62
     0
100
AcDbPoint
 10
1105.362178664131
 20
154.6492976461727
 30
0.0
  0
POINT
  5
7B23
330
7996
100
AcDbEntity
  8
DEFPOINTS
 62
     0
100
AcDbPoint
 10
1100.953971780866
 20
154.6492976461727
 30
0.0
  0
ENDBLK
  5
7998
330
7996
100
AcDbEntity
  8
0
100
AcDbBlockEnd
  0
BLOCK
  5
79A4
330
79A3
100
AcDbEntity
  8
0
100
AcDbBlockBegin
  2
*D25
 70
     1
 10
0.0
 20
0.0
 30
0.0
  3
*D25
  1

  0
LINE
  5
7B24
330
79A3
100
AcDbEntity
  8
标注
370
    -2
100
AcDbLine
 10
1136.362178664015
 20
137.7692976462309
 30
0.0
 11
1136.362178664015
 21
133.3930756036228
 31
0.0
  0
LINE
  5
7B25
330
79A3
100
AcDbEntity
  8
标注
370
    -2
100
AcDbLine
 10
1104.362178664131
 20
137.7692976462309
 30
0.0
 11
1104.362178664131
 21
133.3930756036228
 31
0.0
  0
LINE
  5
7B26
330
79A3
100
AcDbEntity
  8
标注
370
    -2
100
AcDbLine
 10
1135.712178664015
 20
133.7130756036228
 30
0.0
 11
1121.288014271167
 21
133.7130756036228
 31
0.0
  0
LINE
  5
7B27
330
79A3
100
AcDbEntity
  8
标注
370
    -2
100
AcDbLine
 10
1105.012178664131
 20
133.7130756036228
 30
0.0
 11
1119.436343056979
 21
133.7130756036228
 31
0.0
  0
SOLID
  5
7B28
330
79A3
100
AcDbEntity
  8
标注
100
AcDbTrace
 10
1135.712178664015
 20
133.8214089369561
 30
0.0
 11
1135.712178664015
 21
133.6047422702895
 31
0.0
 12
1136.362178664015
 22
133.7130756036228
 32
0.0
 13
1136.362178664015
 23
133.7130756036228
 33
0.0
  0
SOLID
  5
7B29
330
79A3
100
AcDbEntity
  8
标注
100
AcDbTrace
 10
1105.012178664131
 20
133.8214089369561
 30
0.0
 11
1105.012178664131
 21
133.6047422702895
 31
0.0
 12
1104.362178664131
 22
133.7130756036228
 32
0.0
 13
1104.362178664131
 23
133.7130756036228
 33
0.0
  0
MTEXT
  5
7B2A
330
79A3
100
AcDbEntity
  8
标注
100
AcDbMText
 10
1120.362178664073
 20
133.7130756036228
 30
0.0
 40
0.65
 41
0.0
 46
0.0
 71
     5
 72
     1
  1
\A1;32"
 73
     1
 44
1.0
  0
POINT
  5
7B2B
330
79A3
100
AcDbEntity
  8
DEFPOINTS
 62
     0
100
AcDbPoint
 10
1136.362178664015
 20
138.6492976462309
 30
0.0
  0
POINT
  5
7B2C
330
79A3
100
AcDbEntity
  8
DEFPOINTS
 62
     0
100
AcDbPoint
 10
1104.362178664131
 20
138.6492976462309
 30
0.0
  0
POINT
  5
7B2D
330
79A3
100
AcDbEntity
  8
DEFPOINTS
 62
     0
100
AcDbPoint
 10
1104.362178664131
 20
133.7130756036228
 30
0.0
  0
ENDBLK
  5
79A5
330
79A3
100
AcDbEntity
  8
0
100
AcDbBlockEnd
  0
BLOCK
  5
79B1
330
79B0
100
AcDbEntity
  8
0
100
AcDbBlockBegin
  2
*D26
 70
     1
 10
0.0
 20
0.0
 30
0.0
  3
*D26
  1

  0
LINE
  5
7B2E
330
79B0
100
AcDbEntity
  8
标注
370
    -2
100
AcDbLine
 10
1135.704951636844
 20
156.9951357246205
 30
0.0
 11
1136.16361560445
 21
157.4557085905383
 31
0.0
  0
MTEXT
  5
7B2F
330
79B0
100
AcDbEntity
  8
标注
100
AcDbMText
 10
1135.980962583455
 20
158.3447249952713
 30
0.0
 40
0.65
 41
0.0
 46
0.0
 71
     5
 72
     1
  1
\A1;5-R3/8"
 11
0.7056368732402606
 21
0.7085736398735905
 31
0.0
 73
     1
 44
1.0
  0
LINE
  5
7B30
330
79B0
100
AcDbEntity
  8
标注
370
    -2
100
AcDbLine
 10
1134.968477876624
 20
156.2555968587533
 30
0.0
 11
1135.246287669238
 21
156.5345628587027
 31
0.0
  0
SOLID
  5
7B31
330
79B0
100
AcDbEntity
  8
标注
100
AcDbTrace
 10
1135.628189492524
 20
157.0715797192215
 30
0.0
 11
1135.781713781164
 21
156.9186917300195
 31
0.0
 12
1135.246287669238
 22
156.5345628587027
 32
0.0
 13
1135.246287669238
 23
156.5345628587027
 33
0.0
  0
ARC
  5
7B32
330
79B0
100
AcDbEntity
  8
标注
370
    -2
100
AcDbCircle
 10
1134.968477876624
 20
156.2555968587533
 30
0.0
 40
0.3937007874004621
100
AcDbArc
 50
358.5489713484017
 51
89.99999999999998
  0
POINT
  5
7B33
330
79B0
100
AcDbEntity
  8
DEFPOINTS
 62
     0
100
AcDbPoint
 10
1135.246287669238
 20
156.5345628587027
 30
0.0
  0
POINT
  5
7B34
330
79B0
100
AcDbEntity
  8
DEFPOINTS
 62
     0
100
AcDbPoint
 10
1134.968477876624
 20
156.2555968587533
 30
0.0
  0
ENDBLK
  5
79B2
330
79B0
100
AcDbEntity
  8
0
100
AcDbBlockEnd
  0
BLOCK
  5
79BA
330
79B9
100
AcDbEntity
  8
0
100
AcDbBlockBegin
  2
*D27
 70
     1
 10
0.0
 20
0.0
 30
0.0
  3
*D27
  1

  0
LINE
  5
7B35
330
79B9
100
AcDbEntity
  8
标注
370
    -2
100
AcDbLine
 10
1105.289633482125
 20
154.1893666535611
 30
0.0
 11
1104.999263019856
 21
154.7709034061761
 31
0.0
  0
MTEXT
  5
7B36
330
79B9
100
AcDbEntity
  8
标注
100
AcDbMText
 10
1105.050572845461
 20
155.8799004967973
 30
0.0
 40
0.65
 41
0.0
 46
0.0
 71
     5
 72
     1
  1
\A1;4-R3/8"
 11
0.4467237881056182
 21
-0.894671927099854
 31
0.0
 73
     1
 44
1.0
  0
LINE
  5
7B37
330
79B9
100
AcDbEntity
  8
标注
370
    -2
100
AcDbLine
 10
1105.755879451521
 20
153.2555968587827
 30
0.0
 11
1105.580003944394
 21
153.6078299009463
 31
0.0
  0
SOLID
  5
7B38
330
79B9
100
AcDbEntity
  8
标注
100
AcDbTrace
 10
1105.386556274228
 20
154.2377617306059
 30
0.0
 11
1105.192710690023
 21
154.1409715765163
 31
0.0
 12
1105.580003944394
 22
153.6078299009463
 32
0.0
 13
1105.580003944394
 23
153.6078299009463
 33
0.0
  0
ARC
  5
7B39
330
79B9
100
AcDbEntity
  8
标注
370
    -2
100
AcDbCircle
 10
1105.755879451521
 20
153.2555968587827
 30
0.0
 40
0.3937007873996094
100
AcDbArc
 50
90.0
 51
163.1036886682856
  0
POINT
  5
7B3A
330
79B9
100
AcDbEntity
  8
DEFPOINTS
 62
     0
100
AcDbPoint
 10
1105.580003944394
 20
153.6078299009463
 30
0.0
  0
POINT
  5
7B3B
330
79B9
100
AcDbEntity
  8
DEFPOINTS
 62
     0
100
AcDbPoint
 10
1105.755879451521
 20
153.2555968587827
 30
0.0
  0
ENDBLK
  5
79BB
330
79B9
100
AcDbEntity
  8
0
100
AcDbBlockEnd
  0
BLOCK
  5
79C3
330
79C2
100
AcDbEntity
  8
0
100
AcDbBlockBegin
  2
*D28
 70
     1
 10
0.0
 20
0.0
 30
0.0
  3
*D28
  1

  0
LINE
  5
7B3C
330
79C2
100
AcDbEntity
  8
标注
370
    -2
100
AcDbLine
 10
1103.482178664131
 20
180.2520553898191
 30
0.0
 11
1102.876771260836
 21
180.2520553898191
 31
0.0
  0
LINE
  5
7B3D
330
79C2
100
AcDbEntity
  8
标注
370
    -2
100
AcDbLine
 10
1104.371244608824
 20
172.3114609016493
 30
0.0
 11
1102.876771260836
 21
172.3114609016493
 31
0.0
  0
LINE
  5
7B3E
330
79C2
100
AcDbEntity
  8
标注
370
    -2
100
AcDbLine
 10
1103.196771260837
 20
179.6020553898191
 30
0.0
 11
1103.196771260837
 21
176.95575200658
 31
0.0
  0
LINE
  5
7B3F
330
79C2
100
AcDbEntity
  8
标注
370
    -2
100
AcDbLine
 10
1103.196771260837
 20
172.9614609016491
 30
0.0
 11
1103.196771260837
 21
175.6077642848883
 31
0.0
  0
SOLID
  5
7B40
330
79C2
100
AcDbEntity
  8
标注
100
AcDbTrace
 10
1103.088437927503
 20
179.6020553898191
 30
0.0
 11
1103.30510459417
 21
179.6020553898191
 31
0.0
 12
1103.196771260837
 22
180.2520553898191
 32
0.0
 13
1103.196771260837
 23
180.2520553898191
 33
0.0
  0
SOLID
  5
7B41
330
79C2
100
AcDbEntity
  8
标注
100
AcDbTrace
 10
1103.088437927503
 20
172.9614609016491
 30
0.0
 11
1103.30510459417
 21
172.9614609016491
 31
0.0
 12
1103.196771260837
 22
172.3114609016493
 32
0.0
 13
1103.196771260837
 23
172.3114609016493
 33
0.0
  0
MTEXT
  5
7B42
330
79C2
100
AcDbEntity
  8
标注
100
AcDbMText
 10
1103.196771260837
 20
176.2817581457344
 30
0.0
 40
0.65
 41
0.0
 46
0.0
 71
     5
 72
     1
  1
\A1;8"
 11
0.0000000000000001
 21
1.0
 31
0.0
 73
     1
 44
1.0
  0
POINT
  5
7B43
330
79C2
100
AcDbEntity
  8
DEFPOINTS
 62
     0
100
AcDbPoint
 10
1104.362178664131
 20
180.2520553898191
 30
0.0
  0
POINT
  5
7B44
330
79C2
100
AcDbEntity
  8
DEFPOINTS
 62
     0
100
AcDbPoint
 10
1105.251244608824
 20
172.3114609016493
 30
0.0
  0
POINT
  5
7B45
330
79C2
100
AcDbEntity
  8
DEFPOINTS
 62
     0
100
AcDbPoint
 10
1103.196771260837
 20
172.3114609016493
 30
0.0
  0
ENDBLK
  5
79C4
330
79C2
100
AcDbEntity
  8
0
100
AcDbBlockEnd
  0
BLOCK
  5
79D0
330
79CF
100
AcDbEntity
  8
0
100
AcDbBlockBegin
  2
*D29
 70
     1
 10
0.0
 20
0.0
 30
0.0
  3
*D29
  1

  0
LINE
  5
7B46
330
79CF
100
AcDbEntity
  8
标注
370
    -2
100
AcDbLine
 10
1137.242178664015
 20
180.2520553898191
 30
0.0
 11
1139.283592496251
 21
180.2520553898191
 31
0.0
  0
LINE
  5
7B47
330
79CF
100
AcDbEntity
  8
标注
370
    -2
100
AcDbLine
 10
1137.104630280816
 20
170.1897237893847
 30
0.0
 11
1139.283592496251
 21
170.1897237893847
 31
0.0
  0
LINE
  5
7B48
330
79CF
100
AcDbEntity
  8
标注
370
    -2
100
AcDbLine
 10
1138.963592496251
 20
179.6020553898191
 30
0.0
 11
1138.963592496251
 21
176.1163534368052
 31
0.0
  0
LINE
  5
7B49
330
79CF
100
AcDbEntity
  8
标注
370
    -2
100
AcDbLine
 10
1138.963592496251
 20
170.8397237893848
 30
0.0
 11
1138.963592496251
 21
174.3254257423986
 31
0.0
  0
SOLID
  5
7B4A
330
79CF
100
AcDbEntity
  8
标注
100
AcDbTrace
 10
1138.855259162918
 20
179.6020553898191
 30
0.0
 11
1139.071925829584
 21
179.6020553898191
 31
0.0
 12
1138.963592496251
 22
180.2520553898191
 32
0.0
 13
1138.963592496251
 23
180.2520553898191
 33
0.0
  0
SOLID
  5
7B4B
330
79CF
100
AcDbEntity
  8
标注
100
AcDbTrace
 10
1138.855259162918
 20
170.8397237893848
 30
0.0
 11
1139.071925829584
 21
170.8397237893848
 31
0.0
 12
1138.963592496251
 22
170.1897237893847
 32
0.0
 13
1138.963592496251
 23
170.1897237893847
 33
0.0
  0
MTEXT
  5
7B4C
330
79CF
100
AcDbEntity
  8
标注
100
AcDbMText
 10
1138.963592496251
 20
175.2208895896021
 30
0.0
 40
0.65
 41
0.0
 46
0.0
 71
     5
 72
     1
  1
\A1;10"
 11
0.0000000000000001
 21
1.0
 31
0.0
 73
     1
 44
1.0
  0
POINT
  5
7B4D
330
79CF
100
AcDbEntity
  8
DEFPOINTS
 62
     0
100
AcDbPoint
 10
1136.362178664015
 20
180.2520553898191
 30
0.0
  0
POINT
  5
7B4E
330
79CF
100
AcDbEntity
  8
DEFPOINTS
 62
     0
100
AcDbPoint
 10
1136.224630280816
 20
170.1897237893847
 30
0.0
  0
POINT
  5
7B4F
330
79CF
100
AcDbEntity
  8
DEFPOINTS
 62
     0
100
AcDbPoint
 10
1138.963592496251
 20
170.1897237893847
 30
0.0
  0
ENDBLK
  5
79D1
330
79CF
100
AcDbEntity
  8
0
100
AcDbBlockEnd
  0
BLOCK
  5
79DD
330
79DC
100
AcDbEntity
  8
0
100
AcDbBlockBegin
  2
*D30
 70
     1
 10
0.0
 20
0.0
 30
0.0
  3
*D30
  1

  0
LINE
  5
7B50
330
79DC
100
AcDbEntity
  8
标注
370
    -2
100
AcDbLine
 10
1135.7789757872
 20
170.0507709463767
 30
0.0
 11
1136.28374080054
 21
169.6412440470058
 31
0.0
  0
MTEXT
  5
7B51
330
79DC
100
AcDbEntity
  8
标注
100
AcDbMText
 10
1134.38270481726
 20
171.6841163083834
 30
0.0
 40
0.65
 41
0.0
 46
0.0
 71
     5
 72
     1
  1
\A1;R3/8"
 11
0.7765615589838497
 21
-0.6300413836475926
 31
0.0
 73
     1
 44
1.0
  0
LINE
  5
7B52
330
79DC
100
AcDbEntity
  8
标注
370
    -2
100
AcDbLine
 10
1134.968477876624
 20
170.7083456345844
 30
0.0
 11
1135.274210773861
 21
170.4602978457477
 31
0.0
  0
SOLID
  5
7B53
330
79DC
100
AcDbEntity
  8
标注
100
AcDbTrace
 10
1135.847230270429
 20
170.1348984485999
 30
0.0
 11
1135.710721303972
 21
169.9666434441535
 31
0.0
 12
1135.274210773861
 22
170.4602978457477
 32
0.0
 13
1135.274210773861
 23
170.4602978457477
 33
0.0
  0
ARC
  5
7B54
330
79DC
100
AcDbEntity
  8
标注
370
    -2
100
AcDbCircle
 10
1134.968477876624
 20
170.7083456345844
 30
0.0
 40
0.393700787400121
100
AcDbArc
 50
268.8525960680906
 51
7.516833775809831
  0
POINT
  5
7B55
330
79DC
100
AcDbEntity
  8
DEFPOINTS
 62
     0
100
AcDbPoint
 10
1135.274210773861
 20
170.4602978457477
 30
0.0
  0
POINT
  5
7B56
330
79DC
100
AcDbEntity
  8
DEFPOINTS
 62
     0
100
AcDbPoint
 10
1134.968477876624
 20
170.7083456345844
 30
0.0
  0
ENDBLK
  5
79DE
330
79DC
100
AcDbEntity
  8
0
100
AcDbBlockEnd
  0
BLOCK
  5
79E6
330
79E5
100
AcDbEntity
  8
0
100
AcDbBlockBegin
  2
*D31
 70
     1
 10
0.0
 20
0.0
 30
0.0
  3
*D31
  1

  0
LINE
  5
7B57
330
79E5
100
AcDbEntity
  8
标注
370
    -2
100
AcDbLine
 10
1116.708952395035
 20
171.9753720636371
 30
0.0
 11
1117.170107970196
 21
171.5172939747728
 31
0.0
  0
MTEXT
  5
7B58
330
79E5
100
AcDbEntity
  8
标注
100
AcDbMText
 10
1115.430537772169
 20
173.7005345679518
 30
0.0
 40
0.65
 41
0.0
 46
0.0
 71
     5
 72
     1
  1
\A1;R3/8"
 11
0.7094701156328545
 21
-0.7047355213297426
 31
0.0
 73
     1
 44
1.0
  0
LINE
  5
7B59
330
79E5
100
AcDbEntity
  8
标注
370
    -2
100
AcDbLine
 10
1115.968477876712
 20
172.7109050821578
 30
0.0
 11
1116.247796819873
 21
172.4334501525014
 31
0.0
  0
SOLID
  5
7B5A
330
79E5
100
AcDbEntity
  8
标注
100
AcDbTrace
 10
1116.785298743179
 20
172.052231326164
 30
0.0
 11
1116.632606046891
 21
171.8985128011102
 31
0.0
 12
1116.247796819873
 22
172.4334501525014
 32
0.0
 13
1116.247796819873
 23
172.4334501525014
 33
0.0
  0
ARC
  5
7B5B
330
79E5
100
AcDbEntity
  8
标注
370
    -2
100
AcDbCircle
 10
1115.968477876712
 20
172.7109050821578
 30
0.0
 40
0.3937007874002347
100
AcDbArc
 50
267.2870574572279
 51
1.761828409283117
  0
POINT
  5
7B5C
330
79E5
100
AcDbEntity
  8
DEFPOINTS
 62
     0
100
AcDbPoint
 10
1116.247796819873
 20
172.4334501525014
 30
0.0
  0
POINT
  5
7B5D
330
79E5
100
AcDbEntity
  8
DEFPOINTS
 62
     0
100
AcDbPoint
 10
1115.968477876712
 20
172.7109050821578
 30
0.0
  0
ENDBLK
  5
79E7
330
79E5
100
AcDbEntity
  8
0
100
AcDbBlockEnd
  0
BLOCK
  5
79EF
330
79EE
100
AcDbEntity
  8
0
100
AcDbBlockBegin
  2
*D32
 70
     1
 10
0.0
 20
0.0
 30
0.0
  3
*D32
  1

  0
LINE
  5
7B5E
330
79EE
100
AcDbEntity
  8
标注
370
    -2
100
AcDbLine
 10
1135.440918821493
 20
102.9269107860633
 30
0.0
 11
1135.440918821493
 21
100.45367402825
 31
0.0
  0
LINE
  5
7B5F
330
79EE
100
AcDbEntity
  8
标注
370
    -2
100
AcDbLine
 10
1105.283438506653
 20
102.9269107860633
 30
0.0
 11
1105.283438506653
 21
100.45367402825
 31
0.0
  0
LINE
  5
7B60
330
79EE
100
AcDbEntity
  8
标注
370
    -2
100
AcDbLine
 10
1134.790918821493
 20
100.77367402825
 30
0.0
 11
1122.045313043336
 21
100.77367402825
 31
0.0
  0
LINE
  5
7B61
330
79EE
100
AcDbEntity
  8
标注
370
    -2
100
AcDbLine
 10
1105.933438506653
 20
100.77367402825
 30
0.0
 11
1118.67904428481
 21
100.77367402825
 31
0.0
  0
SOLID
  5
7B62
330
79EE
100
AcDbEntity
  8
标注
100
AcDbTrace
 10
1134.790918821493
 20
100.8820073615833
 30
0.0
 11
1134.790918821493
 21
100.6653406949167
 31
0.0
 12
1135.440918821493
 22
100.77367402825
 32
0.0
 13
1135.440918821493
 23
100.77367402825
 33
0.0
  0
SOLID
  5
7B63
330
79EE
100
AcDbEntity
  8
标注
100
AcDbTrace
 10
1105.933438506653
 20
100.8820073615833
 30
0.0
 11
1105.933438506653
 21
100.6653406949167
 31
0.0
 12
1105.283438506653
 22
100.77367402825
 32
0.0
 13
1105.283438506653
 23
100.77367402825
 33
0.0
  0
MTEXT
  5
7B64
330
79EE
100
AcDbEntity
  8
标注
100
AcDbMText
 10
1120.362178664073
 20
100.77367402825
 30
0.0
 40
0.65
 41
0.0
 46
0.0
 71
     5
 72
     1
  1
\A1;30 1/8"
 73
     1
 44
1.0
  0
POINT
  5
7B65
330
79EE
100
AcDbEntity
  8
DEFPOINTS
 62
     0
100
AcDbPoint
 10
1135.440918821493
 20
103.8069107860633
 30
0.0
  0
POINT
  5
7B66
330
79EE
100
AcDbEntity
  8
DEFPOINTS
 62
     0
100
AcDbPoint
 10
1105.283438506653
 20
103.8069107860633
 30
0.0
  0
POINT
  5
7B67
330
79EE
100
AcDbEntity
  8
DEFPOINTS
 62
     0
100
AcDbPoint
 10
1105.283438506653
 20
100.77367402825
 30
0.0
  0
ENDBLK
  5
79F0
330
79EE
100
AcDbEntity
  8
0
100
AcDbBlockEnd
  0
BLOCK
  5
79FC
330
79FB
100
AcDbEntity
  8
0
100
AcDbBlockBegin
  2
*D33
 70
     1
 10
0.0
 20
0.0
 30
0.0
  3
*D33
  1

  0
LINE
  5
7B68
330
79FB
100
AcDbEntity
  8
标注
370
    -2
100
AcDbLine
 10
1104.875879451521
 20
103.3344698411661
 30
0.0
 11
1102.719920498143
 21
103.3344698411661
 31
0.0
  0
LINE
  5
7B69
330
79FB
100
AcDbEntity
  8
标注
370
    -2
100
AcDbLine
 10
1104.875879451521
 20
118.4919501560758
 30
0.0
 11
1102.719920498143
 21
118.4919501560758
 31
0.0
  0
LINE
  5
7B6A
330
79FB
100
AcDbEntity
  8
标注
370
    -2
100
AcDbLine
 10
1103.039920498143
 20
103.9844698411661
 30
0.0
 11
1103.039920498143
 21
109.2604473792485
 31
0.0
  0
LINE
  5
7B6B
330
79FB
100
AcDbEntity
  8
标注
370
    -2
100
AcDbLine
 10
1103.039920498143
 20
117.8419501560758
 30
0.0
 11
1103.039920498143
 21
112.5659726179934
 31
0.0
  0
SOLID
  5
7B6C
330
79FB
100
AcDbEntity
  8
标注
100
AcDbTrace
 10
1102.93158716481
 20
103.9844698411661
 30
0.0
 11
1103.148253831476
 21
103.9844698411661
 31
0.0
 12
1103.039920498143
 22
103.3344698411661
 32
0.0
 13
1103.039920498143
 23
103.3344698411661
 33
0.0
  0
SOLID
  5
7B6D
330
79FB
100
AcDbEntity
  8
标注
100
AcDbTrace
 10
1102.93158716481
 20
117.8419501560758
 30
0.0
 11
1103.148253831476
 21
117.8419501560758
 31
0.0
 12
1103.039920498143
 22
118.4919501560758
 32
0.0
 13
1103.039920498143
 23
118.4919501560758
 33
0.0
  0
MTEXT
  5
7B6E
330
79FB
100
AcDbEntity
  8
标注
100
AcDbMText
 10
1103.039920498143
 20
110.9132099986211
 30
0.0
 40
0.65
 41
0.0
 46
0.0
 71
     5
 72
     1
  1
\A1;15 1/8"
 11
0.0000000000000001
 21
1.0
 31
0.0
 73
     1
 44
1.0
  0
POINT
  5
7B6F
330
79FB
100
AcDbEntity
  8
DEFPOINTS
 62
     0
100
AcDbPoint
 10
1105.755879451521
 20
103.3344698411661
 30
0.0
  0
POINT
  5
7B70
330
79FB
100
AcDbEntity
  8
DEFPOINTS
 62
     0
100
AcDbPoint
 10
1105.755879451521
 20
118.4919501560758
 30
0.0
  0
POINT
  5
7B71
330
79FB
100
AcDbEntity
  8
DEFPOINTS
 62
     0
100
AcDbPoint
 10
1103.039920498143
 20
118.4919501560758
 30
0.0
  0
ENDBLK
  5
79FD
330
79FB
100
AcDbEntity
  8
0
100
AcDbBlockEnd
  0
BLOCK
  5
7A09
330
7A08
100
AcDbEntity
  8
0
100
AcDbBlockBegin
  2
*D34
 70
     1
 10
0.0
 20
0.0
 30
0.0
  3
*D34
  1

  0
LINE
  5
7B72
330
7A08
100
AcDbEntity
  8
标注
370
    -2
100
AcDbLine
 10
1135.848477876625
 20
121.4919501560639
 30
0.0
 11
1138.232526729268
 21
121.4919501560639
 31
0.0
  0
LINE
  5
7B73
330
7A08
100
AcDbEntity
  8
标注
370
    -2
100
AcDbLine
 10
1135.848477876625
 20
103.3344698411661
 30
0.0
 11
1138.232526729268
 21
103.3344698411661
 31
0.0
  0
LINE
  5
7B74
330
7A08
100
AcDbEntity
  8
标注
370
    -2
100
AcDbLine
 10
1137.912526729268
 20
120.8419501560639
 30
0.0
 11
1137.912526729268
 21
114.0659726179874
 31
0.0
  0
LINE
  5
7B75
330
7A08
100
AcDbEntity
  8
标注
370
    -2
100
AcDbLine
 10
1137.912526729268
 20
103.9844698411661
 30
0.0
 11
1137.912526729268
 21
110.7604473792426
 31
0.0
  0
SOLID
  5
7B76
330
7A08
100
AcDbEntity
  8
标注
100
AcDbTrace
 10
1137.804193395934
 20
120.8419501560639
 30
0.0
 11
1138.020860062601
 21
120.8419501560639
 31
0.0
 12
1137.912526729268
 22
121.4919501560639
 32
0.0
 13
1137.912526729268
 23
121.4919501560639
 33
0.0
  0
SOLID
  5
7B77
330
7A08
100
AcDbEntity
  8
标注
100
AcDbTrace
 10
1137.804193395934
 20
103.9844698411661
 30
0.0
 11
1138.020860062601
 21
103.9844698411661
 31
0.0
 12
1137.912526729268
 22
103.3344698411661
 32
0.0
 13
1137.912526729268
 23
103.3344698411661
 33
0.0
  0
MTEXT
  5
7B78
330
7A08
100
AcDbEntity
  8
标注
100
AcDbMText
 10
1137.912526729268
 20
112.4132099986152
 30
0.0
 40
0.65
 41
0.0
 46
0.0
 71
     5
 72
     1
  1
\A1;18 1/8"
 11
0.0000000000000001
 21
1.0
 31
0.0
 73
     1
 44
1.0
  0
POINT
  5
7B79
330
7A08
100
AcDbEntity
  8
DEFPOINTS
 62
     0
100
AcDbPoint
 10
1134.968477876625
 20
121.4919501560639
 30
0.0
  0
POINT
  5
7B7A
330
7A08
100
AcDbEntity
  8
DEFPOINTS
 62
     0
100
AcDbPoint
 10
1134.968477876625
 20
103.3344698411661
 30
0.0
  0
POINT
  5
7B7B
330
7A08
100
AcDbEntity
  8
DEFPOINTS
 62
     0
100
AcDbPoint
 10
1137.912526729268
 20
103.3344698411661
 30
0.0
  0
ENDBLK
  5
7A0A
330
7A08
100
AcDbEntity
  8
0
100
AcDbBlockEnd
  0
BLOCK
  5
7A16
330
7A15
100
AcDbEntity
  8
0
100
AcDbBlockBegin
  2
*D35
 70
     1
 10
0.0
 20
0.0
 30
0.0
  3
*D35
  1

  0
LINE
  5
7B7C
330
7A15
100
AcDbEntity
  8
标注
370
    -2
100
AcDbLine
 10
1135.580822802342
 20
102.8662156352885
 30
0.0
 11
1135.935428720393
 21
102.3214637258071
 31
0.0
  0
MTEXT
  5
7B7D
330
7A15
100
AcDbEntity
  8
标注
100
AcDbMText
 10
1134.573493511251
 20
104.9823665217169
 30
0.0
 40
0.65
 41
0.0
 46
0.0
 71
     5
 72
     1
  1
\A1;4-R1/2"
 11
0.5455475662313046
 21
-0.8380798607406696
 31
0.0
 73
     1
 44
1.0
  0
LINE
  5
7B7E
330
7A15
100
AcDbEntity
  8
标注
370
    -2
100
AcDbLine
 10
1134.968477876625
 20
103.8069107860634
 30
0.0
 11
1135.226216884292
 21
103.4109675447699
 31
0.0
  0
SOLID
  5
7B7F
330
7A15
100
AcDbEntity
  8
标注
100
AcDbTrace
 10
1135.671614787256
 20
102.9253166216302
 30
0.0
 11
1135.490030817429
 21
102.8071146489468
 31
0.0
 12
1135.226216884292
 22
103.4109675447699
 32
0.0
 13
1135.226216884292
 23
103.4109675447699
 33
0.0
  0
ARC
  5
7B80
330
7A15
100
AcDbEntity
  8
标注
370
    -2
100
AcDbCircle
 10
1134.968477876625
 20
103.8069107860634
 30
0.0
 40
0.4724409448801909
100
AcDbArc
 50
270.0000000000001
 51
341.8704316601195
  0
POINT
  5
7B81
330
7A15
100
AcDbEntity
  8
DEFPOINTS
 62
     0
100
AcDbPoint
 10
1135.226216884292
 20
103.4109675447699
 30
0.0
  0
POINT
  5
7B82
330
7A15
100
AcDbEntity
  8
DEFPOINTS
 62
     0
100
AcDbPoint
 10
1134.968477876625
 20
103.8069107860634
 30
0.0
  0
ENDBLK
  5
7A17
330
7A15
100
AcDbEntity
  8
0
100
AcDbBlockEnd
  0
BLOCK
  5
7A1F
330
7A1E
100
AcDbEntity
  8
0
100
AcDbBlockBegin
  2
*D36
 70
     1
 10
0.0
 20
0.0
 30
0.0
  3
*D36
  1

  0
LINE
  5
7B83
330
7A1E
100
AcDbEntity
  8
标注
370
    -2
100
AcDbLine
 10
1117.694682599577
 20
117.992092217273
 30
0.0
 11
1118.01944525813
 21
117.4290387423619
 31
0.0
  0
MTEXT
  5
7B84
330
7A1E
100
AcDbEntity
  8
标注
100
AcDbMText
 10
1117.041512065369
 20
120.0034754309798
 30
0.0
 40
0.65
 41
0.0
 46
0.0
 71
     5
 72
     1
  1
\A1;R1/2"
 11
0.4996348593125097
 21
-0.8662361152478974
 31
0.0
 73
     1
 44
1.0
  0
LINE
  5
7B85
330
7A1E
100
AcDbEntity
  8
标注
370
    -2
100
AcDbLine
 10
1117.133871975996
 20
118.9643911009609
 30
0.0
 11
1117.369919941024
 21
118.5551456921841
 31
0.0
  0
SOLID
  5
7B86
330
7A1E
100
AcDbEntity
  8
标注
100
AcDbTrace
 10
1117.788524845396
 20
118.0462193270319
 30
0.0
 11
1117.600840353759
 21
117.9379651075142
 31
0.0
 12
1117.369919941024
 22
118.5551456921841
 32
0.0
 13
1117.369919941024
 23
118.5551456921841
 33
0.0
  0
ARC
  5
7B87
330
7A1E
100
AcDbEntity
  8
标注
370
    -2
100
AcDbCircle
 10
1117.133871975996
 20
118.9643911009609
 30
0.0
 40
0.4724409448798498
100
AcDbArc
 50
270.0
 51
338.784186749136
  0
POINT
  5
7B88
330
7A1E
100
AcDbEntity
  8
DEFPOINTS
 62
     0
100
AcDbPoint
 10
1117.369919941024
 20
118.5551456921841
 30
0.0
  0
POINT
  5
7B89
330
7A1E
100
AcDbEntity
  8
DEFPOINTS
 62
     0
100
AcDbPoint
 10
1117.133871975996
 20
118.9643911009609
 30
0.0
  0
ENDBLK
  5
7A20
330
7A1E
100
AcDbEntity
  8
0
100
AcDbBlockEnd
  0
BLOCK
  5
7A28
330
7A27
100
AcDbEntity
  8
0
100
AcDbBlockBegin
  2
*D37
 70
     1
 10
0.0
 20
0.0
 30
0.0
  3
*D37
  1

  0
LINE
  5
7B8A
330
7A27
100
AcDbEntity
  8
标注
370
    -2
100
AcDbLine
 10
1120.146011079768
 20
122.075940857151
 30
0.0
 11
1119.926392876692
 21
122.6877151986186
 31
0.0
  0
MTEXT
  5
7B8B
330
7A27
100
AcDbEntity
  8
标注
100
AcDbMText
 10
1120.508330853044
 20
122.8917439178633
 30
0.0
 40
0.65
 41
0.0
 46
0.0
 71
     5
 72
     1
  1
\A1;R1/2"
 11
0.3378741585777397
 21
-0.9411912945652357
 31
0.0
 73
     1
 44
1.0
  0
LINE
  5
7B8C
330
7A27
100
AcDbEntity
  8
标注
370
    -2
100
AcDbLine
 10
1120.525254869572
 20
121.0195092111667
 30
0.0
 11
1120.365629282844
 21
121.4641665156837
 31
0.0
  0
SOLID
  5
7B8D
330
7A27
100
AcDbEntity
  8
标注
100
AcDbTrace
 10
1120.247973470013
 20
122.112543890997
 30
0.0
 11
1120.044048689523
 21
122.0393378233052
 31
0.0
 12
1120.365629282844
 22
121.4641665156837
 32
0.0
 13
1120.365629282844
 23
121.4641665156837
 33
0.0
  0
ARC
  5
7B8E
330
7A27
100
AcDbEntity
  8
标注
370
    -2
100
AcDbCircle
 10
1120.525254869572
 20
121.0195092111667
 30
0.0
 40
0.472440944879736
100
AcDbArc
 50
90.0
 51
148.5557504632996
  0
POINT
  5
7B8F
330
7A27
100
AcDbEntity
  8
DEFPOINTS
 62
     0
100
AcDbPoint
 10
1120.365629282844
 20
121.4641665156837
 30
0.0
  0
POINT
  5
7B90
330
7A27
100
AcDbEntity
  8
DEFPOINTS
 62
     0
100
AcDbPoint
 10
1120.525254869572
 20
121.0195092111667
 30
0.0
  0
ENDBLK
  5
7A29
330
7A27
100
AcDbEntity
  8
0
100
AcDbBlockEnd
  0
BLOCK
  5
7C8E
330
7C8D
100
AcDbEntity
  8
0
100
AcDbBlockBegin
  2
*D38
 70
     1
 10
0.0
 20
0.0
 30
0.0
  3
*D38
  1

  0
LINE
  5
7C90
330
7C8D
100
AcDbEntity
  8
标注
370
    -2
100
AcDbLine
 10
1158.700856327038
 20
107.0912979703644
 30
0.0
 11
1158.700856327038
 21
104.1161975752925
 31
0.0
  0
LINE
  5
7C91
330
7C8D
100
AcDbEntity
  8
标注
370
    -2
100
AcDbLine
 10
1188.858276327058
 20
107.0912979703644
 30
0.0
 11
1188.858276327058
 21
104.1161975752925
 31
0.0
  0
LINE
  5
7C92
330
7C8D
100
AcDbEntity
  8
标注
370
    -2
100
AcDbLine
 10
1159.350856327038
 20
104.4361975752924
 30
0.0
 11
1172.096431947785
 21
104.4361975752924
 31
0.0
  0
LINE
  5
7C93
330
7C8D
100
AcDbEntity
  8
标注
370
    -2
100
AcDbLine
 10
1188.208276327058
 20
104.4361975752924
 30
0.0
 11
1175.462700706312
 21
104.4361975752924
 31
0.0
  0
SOLID
  5
7C94
330
7C8D
100
AcDbEntity
  8
标注
100
AcDbTrace
 10
1159.350856327038
 20
104.5445309086258
 30
0.0
 11
1159.350856327038
 21
104.3278642419591
 31
0.0
 12
1158.700856327038
 22
104.4361975752924
 32
0.0
 13
1158.700856327038
 23
104.4361975752924
 33
0.0
  0
SOLID
  5
7C95
330
7C8D
100
AcDbEntity
  8
标注
100
AcDbTrace
 10
1188.208276327058
 20
104.5445309086258
 30
0.0
 11
1188.208276327058
 21
104.3278642419591
 31
0.0
 12
1188.858276327058
 22
104.4361975752924
 32
0.0
 13
1188.858276327058
 23
104.4361975752924
 33
0.0
  0
MTEXT
  5
7C96
330
7C8D
100
AcDbEntity
  8
标注
100
AcDbMText
 10
1173.779566327048
 20
104.4361975752924
 30
0.0
 40
0.65
 41
0.0
 46
0.0
 71
     5
 72
     1
  1
\A1;30 1/8"
 73
     1
 44
1.0
  0
POINT
  5
7C97
330
7C8D
100
AcDbEntity
  8
DEFPOINTS
 62
     0
100
AcDbPoint
 10
1158.700856327038
 20
107.9712979703644
 30
0.0
  0
POINT
  5
7C98
330
7C8D
100
AcDbEntity
  8
DEFPOINTS
 62
     0
100
AcDbPoint
 10
1188.858276327058
 20
107.9712979703644
 30
0.0
  0
POINT
  5
7C99
330
7C8D
100
AcDbEntity
  8
DEFPOINTS
 62
     0
100
AcDbPoint
 10
1188.858276327058
 20
104.4361975752924
 30
0.0
  0
ENDBLK
  5
7C8F
330
7C8D
100
AcDbEntity
  8
0
100
AcDbBlockEnd
  0
BLOCK
  5
7C9C
330
7C9B
100
AcDbEntity
  8
0
100
AcDbBlockBegin
  2
*D39
 70
     1
 10
0.0
 20
0.0
 30
0.0
  3
*D39
  1

  0
LINE
  5
7C9E
330
7C9B
100
AcDbEntity
  8
标注
370
    -2
100
AcDbLine
 10
1189.265836327058
 20
107.4988579703667
 30
0.0
 11
1192.088898345164
 21
107.4988579703667
 31
0.0
  0
LINE
  5
7C9F
330
7C9B
100
AcDbEntity
  8
标注
370
    -2
100
AcDbLine
 10
1189.265836327058
 20
123.6563059703648
 30
0.0
 11
1192.088898345164
 21
123.6563059703648
 31
0.0
  0
LINE
  5
7CA0
330
7C9B
100
AcDbEntity
  8
标注
370
    -2
100
AcDbLine
 10
1191.768898345164
 20
108.1488579703667
 30
0.0
 11
1191.768898345164
 21
113.9248193509933
 31
0.0
  0
LINE
  5
7CA1
330
7C9B
100
AcDbEntity
  8
标注
370
    -2
100
AcDbLine
 10
1191.768898345164
 20
123.0063059703648
 30
0.0
 11
1191.768898345164
 21
117.2303445897382
 31
0.0
  0
SOLID
  5
7CA2
330
7C9B
100
AcDbEntity
  8
标注
100
AcDbTrace
 10
1191.660565011831
 20
108.1488579703667
 30
0.0
 11
1191.877231678498
 21
108.1488579703667
 31
0.0
 12
1191.768898345164
 22
107.4988579703667
 32
0.0
 13
1191.768898345164
 23
107.4988579703667
 33
0.0
  0
SOLID
  5
7CA3
330
7C9B
100
AcDbEntity
  8
标注
100
AcDbTrace
 10
1191.660565011831
 20
123.0063059703648
 30
0.0
 11
1191.877231678498
 21
123.0063059703648
 31
0.0
 12
1191.768898345164
 22
123.6563059703648
 32
0.0
 13
1191.768898345164
 23
123.6563059703648
 33
0.0
  0
MTEXT
  5
7CA4
330
7C9B
100
AcDbEntity
  8
标注
100
AcDbMText
 10
1191.768898345164
 20
115.5775819703659
 30
0.0
 40
0.65
 41
0.0
 46
0.0
 71
     5
 72
     1
  1
\A1;16 1/8"
 11
0.0000000000000001
 21
1.0
 31
0.0
 73
     1
 44
1.0
  0
POINT
  5
7CA5
330
7C9B
100
AcDbEntity
  8
DEFPOINTS
 62
     0
100
AcDbPoint
 10
1188.385836327058
 20
107.4988579703667
 30
0.0
  0
POINT
  5
7CA6
330
7C9B
100
AcDbEntity
  8
DEFPOINTS
 62
     0
100
AcDbPoint
 10
1188.385836327058
 20
123.6563059703648
 30
0.0
  0
POINT
  5
7CA7
330
7C9B
100
AcDbEntity
  8
DEFPOINTS
 62
     0
100
AcDbPoint
 10
1191.768898345164
 20
123.6563059703648
 30
0.0
  0
ENDBLK
  5
7C9D
330
7C9B
100
AcDbEntity
  8
0
100
AcDbBlockEnd
  0
BLOCK
  5
7CAA
330
7CA9
100
AcDbEntity
  8
0
100
AcDbBlockBegin
  2
*D40
 70
     1
 10
0.0
 20
0.0
 30
0.0
  3
*D40
  1

  0
LINE
  5
7CB2
330
7CA9
100
AcDbEntity
  8
标注
370
    -2
100
AcDbLine
 10
1158.242571514858
 20
107.3439042522174
 30
0.0
 11
1157.703592925424
 21
106.9805833470504
 31
0.0
  0
MTEXT
  5
7CB3
330
7CA9
100
AcDbEntity
  8
标注
100
AcDbMText
 10
1159.803115025615
 20
108.8493087688254
 30
0.0
 40
0.65
 41
0.0
 46
0.0
 71
     5
 72
     1
  1
\A1;4-R1/2"
 11
0.829197829899131
 21
0.5589552387182467
 31
0.0
 73
     1
 44
1.0
  0
LINE
  5
7CB4
330
7CA9
100
AcDbEntity
  8
标注
370
    -2
100
AcDbLine
 10
1159.173296327051
 20
107.9712979703644
 30
0.0
 11
1158.781550104293
 21
107.7072251573842
 31
0.0
  0
SOLID
  5
7CB5
330
7CA9
100
AcDbEntity
  8
标注
100
AcDbTrace
 10
1158.182018030664
 20
107.4337340171231
 30
0.0
 11
1158.303124999053
 21
107.2540744873116
 31
0.0
 12
1158.781550104293
 22
107.7072251573842
 32
0.0
 13
1158.781550104293
 23
107.7072251573842
 33
0.0
  0
POINT
  5
7CB6
330
7CA9
100
AcDbEntity
  8
DEFPOINTS
 62
     0
100
AcDbPoint
 10
1158.781550104293
 20
107.7072251573842
 30
0.0
  0
POINT
  5
7CB7
330
7CA9
100
AcDbEntity
  8
DEFPOINTS
 62
     0
100
AcDbPoint
 10
1159.173296327051
 20
107.9712979703644
 30
0.0
  0
ENDBLK
  5
7CAB
330
7CA9
100
AcDbEntity
  8
0
100
AcDbBlockEnd
  0
BLOCK
  5
7CBA
330
7CB9
100
AcDbEntity
  8
0
100
AcDbBlockBegin
  2
*D41
 70
     1
 10
0.0
 20
0.0
 30
0.0
  3
*D41
  1

  0
LINE
  5
7CBC
330
7CB9
100
AcDbEntity
  8
标注
370
    -2
100
AcDbLine
 10
1158.779871917056
 20
136.6722057972147
 30
0.0
 11
1158.779871917056
 21
133.6544309879646
 31
0.0
  0
LINE
  5
7CBD
330
7CB9
100
AcDbEntity
  8
标注
370
    -2
100
AcDbLine
 10
1188.779260737038
 20
136.6722057972147
 30
0.0
 11
1188.779260737038
 21
133.6544309879646
 31
0.0
  0
LINE
  5
7CBE
330
7CB9
100
AcDbEntity
  8
标注
370
    -2
100
AcDbLine
 10
1159.429871917056
 20
133.9744309879645
 30
0.0
 11
1172.853730719953
 21
133.9744309879645
 31
0.0
  0
LINE
  5
7CBF
330
7CB9
100
AcDbEntity
  8
标注
370
    -2
100
AcDbLine
 10
1188.129260737038
 20
133.9744309879645
 30
0.0
 11
1174.705401934141
 21
133.9744309879645
 31
0.0
  0
SOLID
  5
7CC0
330
7CB9
100
AcDbEntity
  8
标注
100
AcDbTrace
 10
1159.429871917056
 20
134.0827643212979
 30
0.0
 11
1159.429871917056
 21
133.8660976546313
 31
0.0
 12
1158.779871917056
 22
133.9744309879645
 32
0.0
 13
1158.779871917056
 23
133.9744309879645
 33
0.0
  0
SOLID
  5
7CC1
330
7CB9
100
AcDbEntity
  8
标注
100
AcDbTrace
 10
1188.129260737038
 20
134.0827643212979
 30
0.0
 11
1188.129260737038
 21
133.8660976546313
 31
0.0
 12
1188.779260737038
 22
133.9744309879645
 32
0.0
 13
1188.779260737038
 23
133.9744309879645
 33
0.0
  0
MTEXT
  5
7CC2
330
7CB9
100
AcDbEntity
  8
标注
100
AcDbMText
 10
1173.779566327047
 20
133.9744309879645
 30
0.0
 40
0.65
 41
0.0
 46
0.0
 71
     5
 72
     1
  1
\A1;30"
 73
     1
 44
1.0
  0
POINT
  5
7CC3
330
7CB9
100
AcDbEntity
  8
DEFPOINTS
 62
     0
100
AcDbPoint
 10
1158.779871917056
 20
137.5522057972147
 30
0.0
  0
POINT
  5
7CC4
330
7CB9
100
AcDbEntity
  8
DEFPOINTS
 62
     0
100
AcDbPoint
 10
1188.779260737038
 20
137.5522057972147
 30
0.0
  0
POINT
  5
7CC5
330
7CB9
100
AcDbEntity
  8
DEFPOINTS
 62
     0
100
AcDbPoint
 10
1188.779260737038
 20
133.9744309879645
 30
0.0
  0
ENDBLK
  5
7CBB
330
7CB9
100
AcDbEntity
  8
0
100
AcDbBlockEnd
  0
BLOCK
  5
7CC8
330
7CC7
100
AcDbEntity
  8
0
100
AcDbBlockBegin
  2
*D42
 70
     1
 10
0.0
 20
0.0
 30
0.0
  3
*D42
  1

  0
LINE
  5
7CCA
330
7CC7
100
AcDbEntity
  8
标注
370
    -2
100
AcDbLine
 10
1157.780582577037
 20
136.1268236996693
 30
0.0
 11
1157.780582577037
 21
131.613538442364
 31
0.0
  0
LINE
  5
7CCB
330
7CC7
100
AcDbEntity
  8
标注
370
    -2
100
AcDbLine
 10
1189.778550077043
 20
136.1268236996693
 30
0.0
 11
1189.778550077043
 21
131.613538442364
 31
0.0
  0
LINE
  5
7CCC
330
7CC7
100
AcDbEntity
  8
标注
370
    -2
100
AcDbLine
 10
1158.430582577037
 20
131.933538442364
 30
0.0
 11
1172.853730719946
 21
131.933538442364
 31
0.0
  0
LINE
  5
7CCD
330
7CC7
100
AcDbEntity
  8
标注
370
    -2
100
AcDbLine
 10
1189.128550077043
 20
131.933538442364
 30
0.0
 11
1174.705401934134
 21
131.933538442364
 31
0.0
  0
SOLID
  5
7CCE
330
7CC7
100
AcDbEntity
  8
标注
100
AcDbTrace
 10
1158.430582577037
 20
132.0418717756973
 30
0.0
 11
1158.430582577037
 21
131.8252051090307
 31
0.0
 12
1157.780582577037
 22
131.933538442364
 32
0.0
 13
1157.780582577037
 23
131.933538442364
 33
0.0
  0
SOLID
  5
7CCF
330
7CC7
100
AcDbEntity
  8
标注
100
AcDbTrace
 10
1189.128550077043
 20
132.0418717756973
 30
0.0
 11
1189.128550077043
 21
131.8252051090307
 31
0.0
 12
1189.778550077043
 22
131.933538442364
 32
0.0
 13
1189.778550077043
 23
131.933538442364
 33
0.0
  0
MTEXT
  5
7CD0
330
7CC7
100
AcDbEntity
  8
标注
100
AcDbMText
 10
1173.77956632704
 20
131.933538442364
 30
0.0
 40
0.65
 41
0.0
 46
0.0
 71
     5
 72
     1
  1
\A1;32"
 73
     1
 44
1.0
  0
POINT
  5
7CD1
330
7CC7
100
AcDbEntity
  8
DEFPOINTS
 62
     0
100
AcDbPoint
 10
1157.780582577037
 20
137.0068236996693
 30
0.0
  0
POINT
  5
7CD2
330
7CC7
100
AcDbEntity
  8
DEFPOINTS
 62
     0
100
AcDbPoint
 10
1189.778550077043
 20
137.0068236996693
 30
0.0
  0
POINT
  5
7CD3
330
7CC7
100
AcDbEntity
  8
DEFPOINTS
 62
     0
100
AcDbPoint
 10
1189.778550077043
 20
131.933538442364
 30
0.0
  0
ENDBLK
  5
7CC9
330
7CC7
100
AcDbEntity
  8
0
100
AcDbBlockEnd
  0
BLOCK
  5
7CD6
330
7CD5
100
AcDbEntity
  8
0
100
AcDbBlockBegin
  2
*D43
 70
     1
 10
0.0
 20
0.0
 30
0.0
  3
*D43
  1

  0
LINE
  5
7CD8
330
7CD5
100
AcDbEntity
  8
标注
370
    -2
100
AcDbLine
 10
1189.265560737038
 20
137.1585057972214
 30
0.0
 11
1191.871826955997
 21
137.1585057972214
 31
0.0
  0
LINE
  5
7CD9
330
7CD5
100
AcDbEntity
  8
标注
370
    -2
100
AcDbLine
 10
1189.265560737038
 20
153.1583163172202
 30
0.0
 11
1191.871826955997
 21
153.1583163172202
 31
0.0
  0
LINE
  5
7CDA
330
7CD5
100
AcDbEntity
  8
标注
370
    -2
100
AcDbLine
 10
1191.551826955998
 20
137.8085057972215
 30
0.0
 11
1191.551826955998
 21
144.2629472100175
 31
0.0
  0
LINE
  5
7CDB
330
7CD5
100
AcDbEntity
  8
标注
370
    -2
100
AcDbLine
 10
1191.551826955998
 20
152.5083163172202
 30
0.0
 11
1191.551826955998
 21
146.0538749044241
 31
0.0
  0
SOLID
  5
7CDC
330
7CD5
100
AcDbEntity
  8
标注
100
AcDbTrace
 10
1191.443493622664
 20
137.8085057972215
 30
0.0
 11
1191.660160289331
 21
137.8085057972215
 31
0.0
 12
1191.551826955998
 22
137.1585057972214
 32
0.0
 13
1191.551826955998
 23
137.1585057972214
 33
0.0
  0
SOLID
  5
7CDD
330
7CD5
100
AcDbEntity
  8
标注
100
AcDbTrace
 10
1191.443493622664
 20
152.5083163172202
 30
0.0
 11
1191.660160289331
 21
152.5083163172202
 31
0.0
 12
1191.551826955998
 22
153.1583163172202
 32
0.0
 13
1191.551826955998
 23
153.1583163172202
 33
0.0
  0
MTEXT
  5
7CDE
330
7CD5
100
AcDbEntity
  8
标注
100
AcDbMText
 10
1191.551826955998
 20
145.158411057221
 30
0.0
 40
0.65
 41
0.0
 46
0.0
 71
     5
 72
     1
  1
\A1;16"
 11
0.0000000000000001
 21
1.0
 31
0.0
 73
     1
 44
1.0
  0
POINT
  5
7CDF
330
7CD5
100
AcDbEntity
  8
DEFPOINTS
 62
     0
100
AcDbPoint
 10
1188.385560737038
 20
137.1585057972214
 30
0.0
  0
POINT
  5
7CE0
330
7CD5
100
AcDbEntity
  8
DEFPOINTS
 62
     0
100
AcDbPoint
 10
1188.385560737038
 20
153.1583163172202
 30
0.0
  0
POINT
  5
7CE1
330
7CD5
100
AcDbEntity
  8
DEFPOINTS
 62
     0
100
AcDbPoint
 10
1191.551826955998
 20
153.1583163172202
 30
0.0
  0
ENDBLK
  5
7CD7
330
7CD5
100
AcDbEntity
  8
0
100
AcDbBlockEnd
  0
BLOCK
  5
7CE4
330
7CE3
100
AcDbEntity
  8
0
100
AcDbBlockBegin
  2
*D44
 70
     1
 10
0.0
 20
0.0
 30
0.0
  3
*D44
  1

  0
LINE
  5
7CE6
330
7CE3
100
AcDbEntity
  8
标注
370
    -2
100
AcDbLine
 10
1189.659260737038
 20
136.1584290572163
 30
0.0
 11
1193.783540359578
 21
136.1584290572163
 31
0.0
  0
LINE
  5
7CE7
330
7CE3
100
AcDbEntity
  8
标注
370
    -2
100
AcDbLine
 10
1189.659260737038
 20
154.1583930572186
 30
0.0
 11
1193.783540359578
 21
154.1583930572186
 31
0.0
  0
LINE
  5
7CE8
330
7CE3
100
AcDbEntity
  8
标注
370
    -2
100
AcDbLine
 10
1193.463540359579
 20
136.8084290572163
 30
0.0
 11
1193.463540359579
 21
144.2629472100142
 31
0.0
  0
LINE
  5
7CE9
330
7CE3
100
AcDbEntity
  8
标注
370
    -2
100
AcDbLine
 10
1193.463540359579
 20
153.5083930572186
 30
0.0
 11
1193.463540359579
 21
146.0538749044207
 31
0.0
  0
SOLID
  5
7CEA
330
7CE3
100
AcDbEntity
  8
标注
100
AcDbTrace
 10
1193.355207026245
 20
136.8084290572163
 30
0.0
 11
1193.571873692912
 21
136.8084290572163
 31
0.0
 12
1193.463540359579
 22
136.1584290572163
 32
0.0
 13
1193.463540359579
 23
136.1584290572163
 33
0.0
  0
SOLID
  5
7CEB
330
7CE3
100
AcDbEntity
  8
标注
100
AcDbTrace
 10
1193.355207026245
 20
153.5083930572186
 30
0.0
 11
1193.571873692912
 21
153.5083930572186
 31
0.0
 12
1193.463540359579
 22
154.1583930572186
 32
0.0
 13
1193.463540359579
 23
154.1583930572186
 33
0.0
  0
MTEXT
  5
7CEC
330
7CE3
100
AcDbEntity
  8
标注
100
AcDbMText
 10
1193.463540359579
 20
145.1584110572176
 30
0.0
 40
0.65
 41
0.0
 46
0.0
 71
     5
 72
     1
  1
\A1;18"
 11
0.0000000000000001
 21
1.0
 31
0.0
 73
     1
 44
1.0
  0
POINT
  5
7CED
330
7CE3
100
AcDbEntity
  8
DEFPOINTS
 62
     0
100
AcDbPoint
 10
1188.779260737038
 20
136.1584290572163
 30
0.0
  0
POINT
  5
7CEE
330
7CE3
100
AcDbEntity
  8
DEFPOINTS
 62
     0
100
AcDbPoint
 10
1188.779260737038
 20
154.1583930572186
 30
0.0
  0
POINT
  5
7CEF
330
7CE3
100
AcDbEntity
  8
DEFPOINTS
 62
     0
100
AcDbPoint
 10
1193.463540359579
 20
154.1583930572186
 30
0.0
  0
ENDBLK
  5
7CE5
330
7CE3
100
AcDbEntity
  8
0
100
AcDbBlockEnd
  0
BLOCK
  5
7CF2
330
7CF1
100
AcDbEntity
  8
0
100
AcDbBlockBegin
  2
*D45
 70
     1
 10
0.0
 20
0.0
 30
0.0
  3
*D45
  1

  0
LINE
  5
7CF4
330
7CF1
100
AcDbEntity
  8
标注
370
    -2
100
AcDbLine
 10
1190.658550077043
 20
178.3260017809824
 30
0.0
 11
1192.665989401725
 21
178.3260017809824
 31
0.0
  0
LINE
  5
7CF5
330
7CF1
100
AcDbEntity
  8
标注
370
    -2
100
AcDbLine
 10
1190.658550077043
 20
168.3260017809824
 30
0.0
 11
1192.665989401725
 21
168.3260017809824
 31
0.0
  0
LINE
  5
7CF6
330
7CF1
100
AcDbEntity
  8
标注
370
    -2
100
AcDbLine
 10
1192.345989401725
 20
177.6760017809824
 30
0.0
 11
1192.345989401725
 21
174.2214656281857
 31
0.0
  0
LINE
  5
7CF7
330
7CF1
100
AcDbEntity
  8
标注
370
    -2
100
AcDbLine
 10
1192.345989401725
 20
168.9760017809824
 30
0.0
 11
1192.345989401725
 21
172.4305379337791
 31
0.0
  0
SOLID
  5
7CF8
330
7CF1
100
AcDbEntity
  8
标注
100
AcDbTrace
 10
1192.237656068392
 20
177.6760017809824
 30
0.0
 11
1192.454322735058
 21
177.6760017809824
 31
0.0
 12
1192.345989401725
 22
178.3260017809824
 32
0.0
 13
1192.345989401725
 23
178.3260017809824
 33
0.0
  0
SOLID
  5
7CF9
330
7CF1
100
AcDbEntity
  8
标注
100
AcDbTrace
 10
1192.237656068392
 20
168.9760017809824
 30
0.0
 11
1192.454322735058
 21
168.9760017809824
 31
0.0
 12
1192.345989401725
 22
168.3260017809824
 32
0.0
 13
1192.345989401725
 23
168.3260017809824
 33
0.0
  0
MTEXT
  5
7CFA
330
7CF1
100
AcDbEntity
  8
标注
100
AcDbMText
 10
1192.345989401725
 20
173.3260017809826
 30
0.0
 40
0.65
 41
0.0
 46
0.0
 71
     5
 72
     1
  1
\A1;10"
 11
0.0000000000000001
 21
1.0
 31
0.0
 73
     1
 44
1.0
  0
POINT
  5
7CFB
330
7CF1
100
AcDbEntity
  8
DEFPOINTS
 62
     0
100
AcDbPoint
 10
1189.778550077043
 20
178.3260017809824
 30
0.0
  0
POINT
  5
7CFC
330
7CF1
100
AcDbEntity
  8
DEFPOINTS
 62
     0
100
AcDbPoint
 10
1189.778550077043
 20
168.3260017809824
 30
0.0
  0
POINT
  5
7CFD
330
7CF1
100
AcDbEntity
  8
DEFPOINTS
 62
     0
100
AcDbPoint
 10
1192.345989401725
 20
168.3260017809824
 30
0.0
  0
ENDBLK
  5
7CF3
330
7CF1
100
AcDbEntity
  8
0
100
AcDbBlockEnd
  0
BLOCK
  5
7D00
330
7CFF
100
AcDbEntity
  8
0
100
AcDbBlockBegin
  2
*D46
 70
     1
 10
0.0
 20
0.0
 30
0.0
  3
*D46
  1

  0
LINE
  5
7D08
330
7CFF
100
AcDbEntity
  8
标注
370
    -2
100
AcDbLine
 10
1158.439654782125
 20
153.5066913330212
 30
0.0
 11
1157.982582694652
 21
153.9688440208344
 31
0.0
  0
MTEXT
  5
7D09
330
7CFF
100
AcDbEntity
  8
标注
100
AcDbMText
 10
1157.970201222599
 20
154.9044817703707
 30
0.0
 40
0.65
 41
0.0
 46
0.0
 71
     5
 72
     1
  1
\A1;4-R3/8"
 11
0.703187826881778
 21
-0.7110041350971758
 31
0.0
 73
     1
 44
1.0
  0
LINE
  5
7D0A
330
7CFF
100
AcDbEntity
  8
标注
370
    -2
100
AcDbLine
 10
1159.173571917042
 20
152.7646163172202
 30
0.0
 11
1158.896726869599
 21
153.0445386452081
 31
0.0
  0
SOLID
  5
7D0B
330
7CFF
100
AcDbEntity
  8
标注
100
AcDbTrace
 10
1158.516680230094
 20
153.5828700142668
 30
0.0
 11
1158.362629334156
 21
153.4305126517756
 31
0.0
 12
1158.896726869599
 22
153.0445386452081
 32
0.0
 13
1158.896726869599
 23
153.0445386452081
 33
0.0
  0
POINT
  5
7D0C
330
7CFF
100
AcDbEntity
  8
DEFPOINTS
 62
     0
100
AcDbPoint
 10
1158.896726869599
 20
153.0445386452081
 30
0.0
  0
POINT
  5
7D0D
330
7CFF
100
AcDbEntity
  8
DEFPOINTS
 62
     0
100
AcDbPoint
 10
1159.173571917042
 20
152.7646163172202
 30
0.0
  0
ENDBLK
  5
7D01
330
7CFF
100
AcDbEntity
  8
0
100
AcDbBlockEnd
  0
BLOCK
  5
7D10
330
7D0F
100
AcDbEntity
  8
0
100
AcDbBlockBegin
  2
*D47
 70
     1
 10
0.0
 20
0.0
 30
0.0
  3
*D47
  1

  0
LINE
  5
7D12
330
7D0F
100
AcDbEntity
  8
标注
370
    -2
100
AcDbLine
 10
1158.306490727208
 20
168.1941222358644
 30
0.0
 11
1157.763543871414
 21
167.836758678989
 31
0.0
  0
MTEXT
  5
7D13
330
7D0F
100
AcDbEntity
  8
标注
100
AcDbMText
 10
1159.844581208625
 20
169.7808916533022
 30
0.0
 40
0.65
 41
0.0
 46
0.0
 71
     5
 72
     1
  1
\A1;R3/8"
 11
0.8353028550686579
 21
0.5497900875008104
 31
0.0
 73
     1
 44
1.0
  0
LINE
  5
7D14
330
7D0F
100
AcDbEntity
  8
标注
370
    -2
100
AcDbLine
 10
1159.178296317044
 20
168.7679381501892
 30
0.0
 11
1158.849437583003
 21
168.5514857927399
 31
0.0
  0
SOLID
  5
7D15
330
7D0F
100
AcDbEntity
  8
标注
100
AcDbTrace
 10
1158.246930134396
 20
168.2846133784969
 30
0.0
 11
1158.366051320021
 21
168.1036310932319
 31
0.0
 12
1158.849437583003
 22
168.5514857927399
 32
0.0
 13
1158.849437583003
 23
168.5514857927399
 33
0.0
  0
POINT
  5
7D16
330
7D0F
100
AcDbEntity
  8
DEFPOINTS
 62
     0
100
AcDbPoint
 10
1158.849437583003
 20
168.5514857927399
 30
0.0
  0
POINT
  5
7D17
330
7D0F
100
AcDbEntity
  8
DEFPOINTS
 62
     0
100
AcDbPoint
 10
1159.178296317044
 20
168.7679381501892
 30
0.0
  0
ENDBLK
  5
7D11
330
7D0F
100
AcDbEntity
  8
0
100
AcDbBlockEnd
  0
BLOCK
  5
7E39
330
7E38
100
AcDbEntity
  8
0
100
AcDbBlockBegin
  2
*D48
 70
     1
 10
0.0
 20
0.0
 30
0.0
  3
*D48
  1

  0
LINE
  5
7FD4
330
7E38
100
AcDbEntity
  8
标注
440
 16777216
370
    -2
100
AcDbLine
 10
785.2920560865497
 20
804.2322466267744
 30
0.0
 11
785.2920560865497
 21
801.0358466969126
 31
0.0
  0
LINE
  5
7FD5
330
7E38
100
AcDbEntity
  8
标注
440
 16777216
370
    -2
100
AcDbLine
 10
819.2919880864115
 20
804.2322466267744
 30
0.0
 11
819.2919880864115
 21
801.0358466969126
 31
0.0
  0
LINE
  5
7FD6
330
7E38
100
AcDbEntity
  8
标注
440
 16777216
370
    -2
100
AcDbLine
 10
785.9420560865499
 20
801.3558466969126
 30
0.0
 11
801.3661864793867
 21
801.3558466969126
 31
0.0
  0
LINE
  5
7FD7
330
7E38
100
AcDbEntity
  8
标注
440
 16777216
370
    -2
100
AcDbLine
 10
818.6419880864114
 20
801.3558466969126
 30
0.0
 11
803.2178576935747
 21
801.3558466969126
 31
0.0
  0
SOLID
  5
7FD8
330
7E38
100
AcDbEntity
  8
标注
440
 16777216
100
AcDbTrace
 10
785.9420560865499
 20
801.4641800302461
 30
0.0
 11
785.9420560865499
 21
801.2475133635794
 31
0.0
 12
785.2920560865497
 22
801.3558466969126
 32
0.0
 13
785.2920560865497
 23
801.3558466969126
 33
0.0
  0
SOLID
  5
7FD9
330
7E38
100
AcDbEntity
  8
标注
440
 16777216
100
AcDbTrace
 10
818.6419880864114
 20
801.4641800302461
 30
0.0
 11
818.6419880864114
 21
801.2475133635794
 31
0.0
 12
819.2919880864115
 22
801.3558466969126
 32
0.0
 13
819.2919880864115
 23
801.3558466969126
 33
0.0
  0
MTEXT
  5
7FDA
330
7E38
100
AcDbEntity
  8
标注
440
 16777216
100
AcDbMText
 10
802.2920220864808
 20
801.3558466969126
 30
0.0
 40
0.65
 41
0.0
 46
0.0
 71
     5
 72
     1
  1
\A1;34"
 73
     1
 44
1.0
  0
POINT
  5
7FDB
330
7E38
100
AcDbEntity
  8
DEFPOINTS
 62
     0
440
 16777216
100
AcDbPoint
 10
785.2920560865497
 20
805.1122466267743
 30
0.0
  0
POINT
  5
7FDC
330
7E38
100
AcDbEntity
  8
DEFPOINTS
 62
     0
440
 16777216
100
AcDbPoint
 10
819.2919880864115
 20
805.1122466267743
 30
0.0
  0
POINT
  5
7FDD
330
7E38
100
AcDbEntity
  8
DEFPOINTS
 62
     0
440
 16777216
100
AcDbPoint
 10
819.2919880864115
 20
801.3558466969126
 30
0.0
  0
ENDBLK
  5
7E3A
330
7E38
100
AcDbEntity
  8
0
100
AcDbBlockEnd
  0
BLOCK
  5
7E47
330
7E46
100
AcDbEntity
  8
0
100
AcDbBlockBegin
  2
*D49
 70
     1
 10
0.0
 20
0.0
 30
0.0
  3
*D49
  1

  0
LINE
  5
7FDE
330
7E46
100
AcDbEntity
  8
标注
440
 16777216
370
    -2
100
AcDbLine
 10
784.2920580865538
 20
803.6861228026799
 30
0.0
 11
784.2920580865538
 21
799.4076867241444
 31
0.0
  0
LINE
  5
7FDF
330
7E46
100
AcDbEntity
  8
标注
440
 16777216
370
    -2
100
AcDbLine
 10
820.2919860864065
 20
803.6861228026799
 30
0.0
 11
820.2919860864065
 21
799.4076867241444
 31
0.0
  0
LINE
  5
7FE0
330
7E46
100
AcDbEntity
  8
标注
440
 16777216
370
    -2
100
AcDbLine
 10
784.9420580865539
 20
799.7276867241444
 30
0.0
 11
801.366186479386
 21
799.7276867241444
 31
0.0
  0
LINE
  5
7FE1
330
7E46
100
AcDbEntity
  8
标注
440
 16777216
370
    -2
100
AcDbLine
 10
819.6419860864065
 20
799.7276867241444
 30
0.0
 11
803.2178576935743
 21
799.7276867241444
 31
0.0
  0
SOLID
  5
7FE2
330
7E46
100
AcDbEntity
  8
标注
440
 16777216
100
AcDbTrace
 10
784.9420580865539
 20
799.8360200574778
 30
0.0
 11
784.9420580865539
 21
799.6193533908113
 31
0.0
 12
784.2920580865538
 22
799.7276867241444
 32
0.0
 13
784.2920580865538
 23
799.7276867241444
 33
0.0
  0
SOLID
  5
7FE3
330
7E46
100
AcDbEntity
  8
标注
440
 16777216
100
AcDbTrace
 10
819.6419860864065
 20
799.8360200574778
 30
0.0
 11
819.6419860864065
 21
799.6193533908113
 31
0.0
 12
820.2919860864065
 22
799.7276867241444
 32
0.0
 13
820.2919860864065
 23
799.7276867241444
 33
0.0
  0
MTEXT
  5
7FE4
330
7E46
100
AcDbEntity
  8
标注
440
 16777216
100
AcDbMText
 10
802.2920220864801
 20
799.7276867241444
 30
0.0
 40
0.65
 41
0.0
 46
0.0
 71
     5
 72
     1
  1
\A1;36"
 73
     1
 44
1.0
  0
POINT
  5
7FE5
330
7E46
100
AcDbEntity
  8
DEFPOINTS
 62
     0
440
 16777216
100
AcDbPoint
 10
784.2920580865538
 20
804.5661228026798
 30
0.0
  0
POINT
  5
7FE6
330
7E46
100
AcDbEntity
  8
DEFPOINTS
 62
     0
440
 16777216
100
AcDbPoint
 10
820.2919860864065
 20
804.5661228026798
 30
0.0
  0
POINT
  5
7FE7
330
7E46
100
AcDbEntity
  8
DEFPOINTS
 62
     0
440
 16777216
100
AcDbPoint
 10
820.2919860864065
 20
799.7276867241444
 30
0.0
  0
ENDBLK
  5
7E48
330
7E46
100
AcDbEntity
  8
0
100
AcDbBlockEnd
  0
BLOCK
  5
7E55
330
7E54
100
AcDbEntity
  8
0
100
AcDbBlockBegin
  2
*D50
 70
     1
 10
0.0
 20
0.0
 30
0.0
  3
*D50
  1

  0
LINE
  5
7FE8
330
7E54
100
AcDbEntity
  8
标注
440
 16777216
370
    -2
100
AcDbLine
 10
819.7782880864131
 20
804.7185466267755
 30
0.0
 11
822.4316405726295
 21
804.7185466267755
 31
0.0
  0
LINE
  5
7FE9
330
7E54
100
AcDbEntity
  8
标注
440
 16777216
370
    -2
100
AcDbLine
 10
819.7782880864131
 20
821.7185126267096
 30
0.0
 11
822.4316405726295
 21
821.7185126267096
 31
0.0
  0
LINE
  5
7FEA
330
7E54
100
AcDbEntity
  8
标注
440
 16777216
370
    -2
100
AcDbLine
 10
822.111640572629
 20
805.3685466267756
 30
0.0
 11
822.111640572629
 21
812.3230657795396
 31
0.0
  0
LINE
  5
7FEB
330
7E54
100
AcDbEntity
  8
标注
440
 16777216
370
    -2
100
AcDbLine
 10
822.111640572629
 20
821.0685126267099
 30
0.0
 11
822.111640572629
 21
814.1139934739459
 31
0.0
  0
SOLID
  5
7FEC
330
7E54
100
AcDbEntity
  8
标注
440
 16777216
100
AcDbTrace
 10
822.0033072392961
 20
805.3685466267756
 30
0.0
 11
822.2199739059627
 21
805.3685466267756
 31
0.0
 12
822.111640572629
 22
804.7185466267755
 32
0.0
 13
822.111640572629
 23
804.7185466267755
 33
0.0
  0
SOLID
  5
7FED
330
7E54
100
AcDbEntity
  8
标注
440
 16777216
100
AcDbTrace
 10
822.0033072392961
 20
821.0685126267099
 30
0.0
 11
822.2199739059627
 21
821.0685126267099
 31
0.0
 12
822.111640572629
 22
821.7185126267096
 32
0.0
 13
822.111640572629
 23
821.7185126267096
 33
0.0
  0
MTEXT
  5
7FEE
330
7E54
100
AcDbEntity
  8
标注
440
 16777216
100
AcDbMText
 10
822.111640572629
 20
813.2185296267429
 30
0.0
 40
0.65
 41
0.0
 46
0.0
 71
     5
 72
     1
  1
\A1;17"
 11
0.0000000000000001
 21
1.0
 31
0.0
 73
     1
 44
1.0
  0
POINT
  5
7FEF
330
7E54
100
AcDbEntity
  8
DEFPOINTS
 62
     0
440
 16777216
100
AcDbPoint
 10
818.8982880864132
 20
804.7185466267755
 30
0.0
  0
POINT
  5
7FF0
330
7E54
100
AcDbEntity
  8
DEFPOINTS
 62
     0
440
 16777216
100
AcDbPoint
 10
818.8982880864132
 20
821.7185126267096
 30
0.0
  0
POINT
  5
7FF1
330
7E54
100
AcDbEntity
  8
DEFPOINTS
 62
     0
440
 16777216
100
AcDbPoint
 10
822.111640572629
 20
821.7185126267096
 30
0.0
  0
ENDBLK
  5
7E56
330
7E54
100
AcDbEntity
  8
0
100
AcDbBlockEnd
  0
BLOCK
  5
7E63
330
7E62
100
AcDbEntity
  8
0
100
AcDbBlockBegin
  2
*D51
 70
     1
 10
0.0
 20
0.0
 30
0.0
  3
*D51
  1

  0
LINE
  5
7FF2
330
7E62
100
AcDbEntity
  8
标注
440
 16777216
370
    -2
100
AcDbLine
 10
820.1719880864114
 20
803.7185486267802
 30
0.0
 11
824.0385099434998
 21
803.7185486267802
 31
0.0
  0
LINE
  5
7FF3
330
7E62
100
AcDbEntity
  8
标注
440
 16777216
370
    -2
100
AcDbLine
 10
820.1719880864114
 20
822.7185106267059
 30
0.0
 11
824.0385099434998
 21
822.7185106267059
 31
0.0
  0
LINE
  5
7FF4
330
7E62
100
AcDbEntity
  8
标注
440
 16777216
370
    -2
100
AcDbLine
 10
823.7185099434999
 20
804.3685486267802
 30
0.0
 11
823.7185099434999
 21
812.3230657795398
 31
0.0
  0
LINE
  5
7FF5
330
7E62
100
AcDbEntity
  8
标注
440
 16777216
370
    -2
100
AcDbLine
 10
823.7185099434999
 20
822.0685106267058
 30
0.0
 11
823.7185099434999
 21
814.1139934739463
 31
0.0
  0
SOLID
  5
7FF6
330
7E62
100
AcDbEntity
  8
标注
440
 16777216
100
AcDbTrace
 10
823.6101766101665
 20
804.3685486267802
 30
0.0
 11
823.8268432768332
 21
804.3685486267802
 31
0.0
 12
823.7185099434999
 22
803.7185486267802
 32
0.0
 13
823.7185099434999
 23
803.7185486267802
 33
0.0
  0
SOLID
  5
7FF7
330
7E62
100
AcDbEntity
  8
标注
440
 16777216
100
AcDbTrace
 10
823.6101766101665
 20
822.0685106267058
 30
0.0
 11
823.8268432768332
 21
822.0685106267058
 31
0.0
 12
823.7185099434999
 22
822.7185106267059
 32
0.0
 13
823.7185099434999
 23
822.7185106267059
 33
0.0
  0
MTEXT
  5
7FF8
330
7E62
100
AcDbEntity
  8
标注
440
 16777216
100
AcDbMText
 10
823.7185099434995
 20
813.2185296267433
 30
0.0
 40
0.65
 41
0.0
 46
0.0
 71
     5
 72
     1
  1
\A1;19"
 11
0.0000000000000001
 21
1.0
 31
0.0
 73
     1
 44
1.0
  0
POINT
  5
7FF9
330
7E62
100
AcDbEntity
  8
DEFPOINTS
 62
     0
440
 16777216
100
AcDbPoint
 10
819.2919880864115
 20
803.7185486267802
 30
0.0
  0
POINT
  5
7FFA
330
7E62
100
AcDbEntity
  8
DEFPOINTS
 62
     0
440
 16777216
100
AcDbPoint
 10
819.2919880864115
 20
822.7185106267059
 30
0.0
  0
POINT
  5
7FFB
330
7E62
100
AcDbEntity
  8
DEFPOINTS
 62
     0
440
 16777216
100
AcDbPoint
 10
823.7185099434999
 20
822.7185106267059
 30
0.0
  0
ENDBLK
  5
7E64
330
7E62
100
AcDbEntity
  8
0
100
AcDbBlockEnd
  0
BLOCK
  5
7E71
330
7E70
100
AcDbEntity
  8
0
100
AcDbBlockBegin
  2
*D52
 70
     1
 10
0.0
 20
0.0
 30
0.0
  3
*D52
  1

  0
LINE
  5
7FFC
330
7E70
100
AcDbEntity
  8
标注
440
 16777216
370
    -2
100
AcDbLine
 10
785.2133160865518
 20
770.354492965925
 30
0.0
 11
785.2133160865518
 21
768.2432468530063
 31
0.0
  0
LINE
  5
7FFD
330
7E70
100
AcDbEntity
  8
标注
440
 16777216
370
    -2
100
AcDbLine
 10
819.3707280864154
 20
770.354492965925
 30
0.0
 11
819.3707280864154
 21
768.2432468530063
 31
0.0
  0
LINE
  5
7FFE
330
7E70
100
AcDbEntity
  8
标注
440
 16777216
370
    -2
100
AcDbLine
 10
785.8633160865517
 20
768.5632468530062
 30
0.0
 11
800.6088877072205
 21
768.5632468530062
 31
0.0
  0
LINE
  5
7FFF
330
7E70
100
AcDbEntity
  8
标注
440
 16777216
370
    -2
100
AcDbLine
 10
818.7207280864154
 20
768.5632468530062
 30
0.0
 11
803.9751564657468
 21
768.5632468530062
 31
0.0
  0
SOLID
  5
8000
330
7E70
100
AcDbEntity
  8
标注
440
 16777216
100
AcDbTrace
 10
785.8633160865517
 20
768.6715801863396
 30
0.0
 11
785.8633160865517
 21
768.4549135196727
 31
0.0
 12
785.2133160865518
 22
768.5632468530062
 32
0.0
 13
785.2133160865518
 23
768.5632468530062
 33
0.0
  0
SOLID
  5
8001
330
7E70
100
AcDbEntity
  8
标注
440
 16777216
100
AcDbTrace
 10
818.7207280864154
 20
768.6715801863396
 30
0.0
 11
818.7207280864154
 21
768.4549135196727
 31
0.0
 12
819.3707280864154
 22
768.5632468530062
 32
0.0
 13
819.3707280864154
 23
768.5632468530062
 33
0.0
  0
MTEXT
  5
8002
330
7E70
100
AcDbEntity
  8
标注
440
 16777216
100
AcDbMText
 10
802.2920220864836
 20
768.5632468530062
 30
0.0
 40
0.65
 41
0.0
 46
0.0
 71
     5
 72
     1
  1
\A1;34 1/8"
 73
     1
 44
1.0
  0
POINT
  5
8003
330
7E70
100
AcDbEntity
  8
DEFPOINTS
 62
     0
440
 16777216
100
AcDbPoint
 10
785.2133160865518
 20
771.234492965925
 30
0.0
  0
POINT
  5
8004
330
7E70
100
AcDbEntity
  8
DEFPOINTS
 62
     0
440
 16777216
100
AcDbPoint
 10
819.3707280864154
 20
771.234492965925
 30
0.0
  0
POINT
  5
8005
330
7E70
100
AcDbEntity
  8
DEFPOINTS
 62
     0
440
 16777216
100
AcDbPoint
 10
819.3707280864154
 20
768.5632468530062
 30
0.0
  0
ENDBLK
  5
7E72
330
7E70
100
AcDbEntity
  8
0
100
AcDbBlockEnd
  0
BLOCK
  5
7E7F
330
7E7E
100
AcDbEntity
  8
0
100
AcDbBlockBegin
  2
*D53
 70
     1
 10
0.0
 20
0.0
 30
0.0
  3
*D53
  1

  0
LINE
  5
8006
330
7E7E
100
AcDbEntity
  8
标注
440
 16777216
370
    -2
100
AcDbLine
 10
819.7782880864131
 20
770.7620529659291
 30
0.0
 11
821.7066659182155
 21
770.7620529659291
 31
0.0
  0
LINE
  5
8007
330
7E7E
100
AcDbEntity
  8
标注
440
 16777216
370
    -2
100
AcDbLine
 10
819.7782880864131
 20
787.919498965858
 30
0.0
 11
821.7066659182155
 21
787.919498965858
 31
0.0
  0
LINE
  5
8008
330
7E7E
100
AcDbEntity
  8
标注
440
 16777216
370
    -2
100
AcDbLine
 10
821.3866659182151
 20
771.412052965929
 30
0.0
 11
821.3866659182151
 21
777.6880133465208
 31
0.0
  0
LINE
  5
8009
330
7E7E
100
AcDbEntity
  8
标注
440
 16777216
370
    -2
100
AcDbLine
 10
821.3866659182151
 20
787.269498965858
 30
0.0
 11
821.3866659182151
 21
780.9935385852658
 31
0.0
  0
SOLID
  5
800A
330
7E7E
100
AcDbEntity
  8
标注
440
 16777216
100
AcDbTrace
 10
821.2783325848819
 20
771.412052965929
 30
0.0
 11
821.4949992515487
 21
771.412052965929
 31
0.0
 12
821.3866659182151
 22
770.7620529659291
 32
0.0
 13
821.3866659182151
 23
770.7620529659291
 33
0.0
  0
SOLID
  5
800B
330
7E7E
100
AcDbEntity
  8
标注
440
 16777216
100
AcDbTrace
 10
821.2783325848819
 20
787.269498965858
 30
0.0
 11
821.4949992515487
 21
787.269498965858
 31
0.0
 12
821.3866659182151
 22
787.919498965858
 32
0.0
 13
821.3866659182151
 23
787.919498965858
 33
0.0
  0
MTEXT
  5
800C
330
7E7E
100
AcDbEntity
  8
标注
440
 16777216
100
AcDbMText
 10
821.3866659182151
 20
779.3407759658937
 30
0.0
 40
0.65
 41
0.0
 46
0.0
 71
     5
 72
     1
  1
\A1;17 1/8"
 11
0.0000000000000001
 21
1.0
 31
0.0
 73
     1
 44
1.0
  0
POINT
  5
800D
330
7E7E
100
AcDbEntity
  8
DEFPOINTS
 62
     0
440
 16777216
100
AcDbPoint
 10
818.8982880864132
 20
770.7620529659291
 30
0.0
  0
POINT
  5
800E
330
7E7E
100
AcDbEntity
  8
DEFPOINTS
 62
     0
440
 16777216
100
AcDbPoint
 10
818.8982880864132
 20
787.919498965858
 30
0.0
  0
POINT
  5
800F
330
7E7E
100
AcDbEntity
  8
DEFPOINTS
 62
     0
440
 16777216
100
AcDbPoint
 10
821.3866659182151
 20
787.919498965858
 30
0.0
  0
ENDBLK
  5
7E80
330
7E7E
100
AcDbEntity
  8
0
100
AcDbBlockEnd
  0
BLOCK
  5
7E8D
330
7E8C
100
AcDbEntity
  8
0
100
AcDbBlockBegin
  2
*D54
 70
     1
 10
0.0
 20
0.0
 30
0.0
  3
*D54
  1

  0
LINE
  5
8010
330
7E8C
100
AcDbEntity
  8
标注
440
 16777216
370
    -2
100
AcDbLine
 10
784.8597896913722
 20
770.4744593695378
 30
0.0
 11
784.3814762342032
 21
770.0343273022093
 31
0.0
  0
MTEXT
  5
8011
330
7E8C
100
AcDbEntity
  8
标注
440
 16777216
100
AcDbMText
 10
786.2430434120469
 20
772.2677064102043
 30
0.0
 40
0.65
 41
0.0
 46
0.0
 71
     5
 72
     1
  1
\A1;4-R1/2"
 11
0.7358668571833677
 21
0.6771262574284602
 31
0.0
 73
     1
 44
1.0
  0
LINE
  5
8012
330
7E8C
100
AcDbEntity
  8
标注
440
 16777216
370
    -2
100
AcDbLine
 10
785.685756086548
 20
771.2344929659247
 30
0.0
 11
785.3381031485414
 21
770.9145914368662
 31
0.0
  0
SOLID
  5
8013
330
7E8C
100
AcDbEntity
  8
标注
440
 16777216
100
AcDbTrace
 10
784.7864343468175
 20
770.554178279066
 30
0.0
 11
784.9331450359268
 21
770.3947404600096
 31
0.0
 12
785.3381031485414
 22
770.9145914368662
 32
0.0
 13
785.3381031485414
 23
770.9145914368662
 33
0.0
  0
POINT
  5
8014
330
7E8C
100
AcDbEntity
  8
DEFPOINTS
 62
     0
440
 16777216
100
AcDbPoint
 10
785.3381031485414
 20
770.9145914368662
 30
0.0
  0
POINT
  5
8015
330
7E8C
100
AcDbEntity
  8
DEFPOINTS
 62
     0
440
 16777216
100
AcDbPoint
 10
785.685756086548
 20
771.2344929659247
 30
0.0
  0
ENDBLK
  5
7E8E
330
7E8C
100
AcDbEntity
  8
0
100
AcDbBlockEnd
  0
BLOCK
  5
7E9D
330
7E9C
100
AcDbEntity
  8
0
100
AcDbBlockBegin
  2
*D55
 70
     1
 10
0.0
 20
0.0
 30
0.0
  3
*D55
  1

  0
LINE
  5
8016
330
7E9C
100
AcDbEntity
  8
标注
440
 16777216
370
    -2
100
AcDbLine
 10
784.7805875902443
 20
804.5926509346269
 30
0.0
 11
784.2168628392645
 21
804.2690548822212
 31
0.0
  0
MTEXT
  5
8017
330
7E9C
100
AcDbEntity
  8
标注
440
 16777216
100
AcDbMText
 10
786.4294395996344
 20
806.1358783884584
 30
0.0
 40
0.65
 41
0.0
 46
0.0
 71
     5
 72
     1
  1
\A1;4-R3/8"
 11
0.8672688476614013
 21
0.4978400806243561
 31
0.0
 73
     1
 44
1.0
  0
LINE
  5
8018
330
7E9C
100
AcDbEntity
  8
标注
440
 16777216
370
    -2
100
AcDbLine
 10
785.6857560865477
 20
805.1122466267743
 30
0.0
 11
785.344312341224
 21
804.9162469870328
 31
0.0
  0
SOLID
  5
8019
330
7E9C
100
AcDbEntity
  8
标注
440
 16777216
100
AcDbTrace
 10
784.7266549148432
 20
804.6866050597905
 30
0.0
 11
784.8345202656453
 21
804.4986968094638
 31
0.0
 12
785.344312341224
 22
804.9162469870328
 32
0.0
 13
785.344312341224
 23
804.9162469870328
 33
0.0
  0
POINT
  5
801A
330
7E9C
100
AcDbEntity
  8
DEFPOINTS
 62
     0
440
 16777216
100
AcDbPoint
 10
785.344312341224
 20
804.9162469870328
 30
0.0
  0
POINT
  5
801B
330
7E9C
100
AcDbEntity
  8
DEFPOINTS
 62
     0
440
 16777216
100
AcDbPoint
 10
785.6857560865477
 20
805.1122466267743
 30
0.0
  0
ENDBLK
  5
7E9E
330
7E9C
100
AcDbEntity
  8
0
100
AcDbBlockEnd
  0
BLOCK
  5
7EAD
330
7EAC
100
AcDbEntity
  8
0
100
AcDbBlockBegin
  2
*D56
 70
     1
 10
0.0
 20
0.0
 30
0.0
  3
*D56
  1

  0
LINE
  5
801C
330
7EAC
100
AcDbEntity
  8
标注
440
 16777216
370
    -2
100
AcDbLine
 10
821.1719860864063
 20
845.0685516014104
 30
0.0
 11
822.8972705884554
 21
845.0685516014104
 31
0.0
  0
LINE
  5
801D
330
7EAC
100
AcDbEntity
  8
标注
440
 16777216
370
    -2
100
AcDbLine
 10
821.1719860864063
 20
836.0685516014465
 30
0.0
 11
822.8972705884554
 21
836.0685516014465
 31
0.0
  0
LINE
  5
801E
330
7EAC
100
AcDbEntity
  8
标注
440
 16777216
370
    -2
100
AcDbLine
 10
822.5772705884555
 20
844.4185516014105
 30
0.0
 11
822.5772705884555
 21
841.2421020789182
 31
0.0
  0
LINE
  5
801F
330
7EAC
100
AcDbEntity
  8
标注
440
 16777216
370
    -2
100
AcDbLine
 10
822.5772705884555
 20
836.7185516014464
 30
0.0
 11
822.5772705884555
 21
839.8950011239387
 31
0.0
  0
SOLID
  5
8020
330
7EAC
100
AcDbEntity
  8
标注
440
 16777216
100
AcDbTrace
 10
822.4689372551221
 20
844.4185516014105
 30
0.0
 11
822.6856039217889
 21
844.4185516014105
 31
0.0
 12
822.5772705884555
 22
845.0685516014104
 32
0.0
 13
822.5772705884555
 23
845.0685516014104
 33
0.0
  0
SOLID
  5
8021
330
7EAC
100
AcDbEntity
  8
标注
440
 16777216
100
AcDbTrace
 10
822.4689372551221
 20
836.7185516014464
 30
0.0
 11
822.6856039217889
 21
836.7185516014464
 31
0.0
 12
822.5772705884555
 22
836.0685516014465
 32
0.0
 13
822.5772705884555
 23
836.0685516014465
 33
0.0
  0
MTEXT
  5
8022
330
7EAC
100
AcDbEntity
  8
标注
440
 16777216
100
AcDbMText
 10
822.5772705884551
 20
840.5685516014287
 30
0.0
 40
0.65
 41
0.0
 46
0.0
 71
     5
 72
     1
  1
\A1;9"
 11
0.0000000000000001
 21
1.0
 31
0.0
 73
     1
 44
1.0
  0
POINT
  5
8023
330
7EAC
100
AcDbEntity
  8
DEFPOINTS
 62
     0
440
 16777216
100
AcDbPoint
 10
820.2919860864065
 20
845.0685516014104
 30
0.0
  0
POINT
  5
8024
330
7EAC
100
AcDbEntity
  8
DEFPOINTS
 62
     0
440
 16777216
100
AcDbPoint
 10
820.2919860864065
 20
836.0685516014465
 30
0.0
  0
POINT
  5
8025
330
7EAC
100
AcDbEntity
  8
DEFPOINTS
 62
     0
440
 16777216
100
AcDbPoint
 10
822.5772705884555
 20
836.0685516014465
 30
0.0
  0
ENDBLK
  5
7EAE
330
7EAC
100
AcDbEntity
  8
0
100
AcDbBlockEnd
  0
BLOCK
  5
7FC5
330
7FBA
100
AcDbEntity
  8
0
100
AcDbBlockBegin
  2
*D57
 70
     1
 10
0.0
 20
0.0
 30
0.0
  3
*D57
  1

  0
LINE
  5
8026
330
7FBA
100
AcDbEntity
  8
标注
  6
Continuous
440
 16777216
370
    -2
100
AcDbLine
 10
803.1720220864837
 20
816.9941122330298
 30
0.0
 11
803.2021068177842
 21
816.9941122330298
 31
0.0
  0
LINE
  5
8027
330
7FBA
100
AcDbEntity
  8
标注
  6
Continuous
440
 16777216
370
    -2
100
AcDbLine
 10
803.1720220864837
 20
821.7185126267105
 30
0.0
 11
803.2021068177842
 21
821.7185126267105
 31
0.0
  0
LINE
  5
8028
330
7FBA
100
AcDbEntity
  8
标注
  6
Continuous
440
 16777216
370
    -2
100
AcDbLine
 10
802.882106817784
 20
816.3441122330297
 30
0.0
 11
802.882106817784
 21
815.6941122330298
 31
0.0
  0
LINE
  5
8029
330
7FBA
100
AcDbEntity
  8
标注
  6
Continuous
440
 16777216
370
    -2
100
AcDbLine
 10
802.882106817784
 20
822.3685126267104
 30
0.0
 11
802.882106817784
 21
823.0185126267105
 31
0.0
  0
LINE
  5
802A
330
7FBA
100
AcDbEntity
  8
标注
  6
Continuous
440
 16777216
370
    -2
100
AcDbLine
 10
802.882106817784
 20
816.9941122330298
 30
0.0
 11
802.882106817784
 21
817.9123833712072
 31
0.0
  0
LINE
  5
802B
330
7FBA
100
AcDbEntity
  8
标注
  6
Continuous
440
 16777216
370
    -2
100
AcDbLine
 10
802.882106817784
 20
821.7185126267105
 30
0.0
 11
802.882106817784
 21
820.8002414885331
 31
0.0
  0
SOLID
  5
802C
330
7FBA
100
AcDbEntity
  8
标注
440
 16777216
100
AcDbTrace
 10
802.7737734844507
 20
816.3441122330297
 30
0.0
 11
802.9904401511172
 21
816.3441122330297
 31
0.0
 12
802.882106817784
 22
816.9941122330298
 32
0.0
 13
802.882106817784
 23
816.9941122330298
 33
0.0
  0
SOLID
  5
802D
330
7FBA
100
AcDbEntity
  8
标注
440
 16777216
100
AcDbTrace
 10
802.7737734844507
 20
822.3685126267104
 30
0.0
 11
802.9904401511172
 21
822.3685126267104
 31
0.0
 12
802.882106817784
 22
821.7185126267105
 32
0.0
 13
802.882106817784
 23
821.7185126267105
 33
0.0
  0
MTEXT
  5
802E
330
7FBA
100
AcDbEntity
  8
标注
440
 16777216
100
AcDbMText
 10
802.8821068177837
 20
819.3563124298702
 30
0.0
 40
0.65
 41
0.0
 46
0.0
 71
     5
 72
     1
  1
\A1;4 3/4"
 11
0.0000000000000001
 21
1.0
 31
0.0
 73
     1
 44
1.0
  0
POINT
  5
802F
330
7FBA
100
AcDbEntity
  8
DEFPOINTS
 62
     0
440
 16777216
100
AcDbPoint
 10
802.2920220864836
 20
816.9941122330298
 30
0.0
  0
POINT
  5
8030
330
7FBA
100
AcDbEntity
  8
DEFPOINTS
 62
     0
440
 16777216
100
AcDbPoint
 10
802.2920220864836
 20
821.7185126267105
 30
0.0
  0
POINT
  5
8031
330
7FBA
100
AcDbEntity
  8
DEFPOINTS
 62
     0
440
 16777216
100
AcDbPoint
 10
802.882106817784
 20
821.7185126267105
 30
0.0
  0
ENDBLK
  5
7FC6
330
7FBA
100
AcDbEntity
  8
0
100
AcDbBlockEnd
  0
ENDSEC
  0
SECTION
  2
ENTITIES
  0
LINE
  5
7DDD
330
5F6E
100
AcDbEntity
  8
中心线
  6
Continuous
 62
     1
100
AcDbLine
 10
785.685756086548
 20
787.919498965858
 30
0.0
 11
818.8982880864132
 21
787.919498965858
 31
0.0
  0
ARC
  5
7DDE
330
5F6E
100
AcDbEntity
  8
中心线
  6
Continuous
 62
     1
100
AcDbCircle
 10
785.685756086548
 20
787.4470589658622
 30
0.0
 40
0.4724399999981105
100
AcDbArc
 50
90.0
 51
180.0
  0
ARC
  5
7DDF
330
5F6E
100
AcDbEntity
  8
中心线
  6
Continuous
 62
     1
100
AcDbCircle
 10
818.8982880864132
 20
787.4470589658622
 30
0.0
 40
0.4724399999981105
100
AcDbArc
 50
0.0
 51
90.0
  0
LINE
  5
7DE0
330
5F6E
100
AcDbEntity
  8
中心线
  6
Continuous
 62
     1
100
AcDbLine
 10
785.2133160865518
 20
771.234492965925
 30
0.0
 11
785.2133160865518
 21
787.4470589658622
 31
0.0
  0
LINE
  5
7DE1
330
5F6E
100
AcDbEntity
  8
中心线
  6
Continuous
 62
     1
100
AcDbLine
 10
819.3707280864154
 20
787.4470589658622
 30
0.0
 11
819.3707280864154
 21
771.234492965925
 31
0.0
  0
ARC
  5
7DE2
330
5F6E
100
AcDbEntity
  8
中心线
  6
Continuous
 62
     1
100
AcDbCircle
 10
818.8982880864132
 20
771.234492965925
 30
0.0
 40
0.4724399999981105
100
AcDbArc
 50
270.0
 51
0.0
  0
LINE
  5
7DE3
330
5F6E
100
AcDbEntity
  8
中心线
  6
Continuous
 62
     1
100
AcDbLine
 10
785.685756086548
 20
770.7620529659291
 30
0.0
 11
818.8982880864132
 21
770.7620529659291
 31
0.0
  0
ARC
  5
7DE4
330
5F6E
100
AcDbEntity
  8
中心线
  6
Continuous
 62
     1
100
AcDbCircle
 10
785.685756086548
 20
771.234492965925
 30
0.0
 40
0.4724399999981105
100
AcDbArc
 50
180.0
 51
270.0
  0
LINE
  5
7DE5
330
5F6E
100
AcDbEntity
  8
虚线
 48
0.1
100
AcDbLine
 10
799.969180291193
 20
836.0685716014383
 30
0.0
 11
804.6148638817523
 21
836.0685716014383
 31
0.0
  0
LINE
  5
7DE6
330
5F6E
100
AcDbEntity
  8
0
100
AcDbLine
 10
785.1936310865518
 20
845.0685516014104
 30
0.0
 11
819.3904130864153
 21
845.0685516014104
 31
0.0
  0
LINE
  5
7DE7
330
5F6E
100
AcDbEntity
  8
中心线
 48
2.0
100
AcDbLine
 10
802.2920220864836
 20
837.8110926051206
 30
0.0
 11
802.2920220864836
 21
834.9369966438263
 31
0.0
  0
LINE
  5
7DE8
330
5F6E
100
AcDbEntity
  8
0
100
AcDbLine
 10
819.4444119105149
 20
803.7185486267802
 30
0.0
 11
785.1396322624533
 21
803.7185486267802
 31
0.0
  0
ARC
  5
7DE9
330
5F6E
100
AcDbEntity
  8
0
100
AcDbCircle
 10
785.1396322624533
 20
803.797288626777
 30
0.0
 40
0.0787399999996851
100
AcDbArc
 50
225.000000000234
 51
270.0
  0
ARC
  5
7DEA
330
5F6E
100
AcDbEntity
  8
0
100
AcDbCircle
 10
819.4444119105149
 20
803.797288626777
 30
0.0
 40
0.0787399999996851
100
AcDbArc
 50
270.0
 51
314.999999999766
  0
LINE
  5
7DEB
330
5F6E
100
AcDbEntity
  8
0
100
AcDbLine
 10
784.2920580865538
 20
804.5661228026798
 30
0.0
 11
784.2920580865538
 21
821.8709364508061
 31
0.0
  0
ARC
  5
7DEC
330
5F6E
100
AcDbEntity
  8
0
100
AcDbCircle
 10
784.3707980865501
 20
804.5661228026798
 30
0.0
 40
0.0787399999996851
100
AcDbArc
 50
180.0
 51
225.000000000234
  0
LINE
  5
7DED
330
5F6E
100
AcDbEntity
  8
0
100
AcDbLine
 10
785.0839546745012
 20
803.7416110388251
 30
0.0
 11
784.3151204986058
 21
804.5104452147278
 31
0.0
  0
LINE
  5
7DEE
330
5F6E
100
AcDbEntity
  8
0
100
AcDbLine
 10
785.1396322624533
 20
822.7185106267059
 30
0.0
 11
819.4444119105149
 21
822.7185106267059
 31
0.0
  0
ARC
  5
7DEF
330
5F6E
100
AcDbEntity
  8
0
100
AcDbCircle
 10
785.1396322624533
 20
822.6397706267087
 30
0.0
 40
0.0787399999996851
100
AcDbArc
 50
90.0
 51
134.999999999766
  0
LINE
  5
7DF0
330
5F6E
100
AcDbEntity
  8
0
100
AcDbLine
 10
820.2689236743617
 20
821.9266140387581
 30
0.0
 11
819.5000894984598
 21
822.6954482146609
 31
0.0
  0
ARC
  5
7DF1
330
5F6E
100
AcDbEntity
  8
0
100
AcDbCircle
 10
819.4444119105149
 20
822.6397706267087
 30
0.0
 40
0.0787399999996851
100
AcDbArc
 50
45.00000000023397
 51
90.0
  0
LINE
  5
7DF2
330
5F6E
100
AcDbEntity
  8
0
100
AcDbLine
 10
784.3151204986058
 20
821.9266140387581
 30
0.0
 11
785.0839546745012
 21
822.6954482146609
 31
0.0
  0
ARC
  5
7DF3
330
5F6E
100
AcDbEntity
  8
0
100
AcDbCircle
 10
784.3707980865501
 20
821.8709364508061
 30
0.0
 40
0.0787399999996851
100
AcDbArc
 50
134.999999999766
 51
180.0
  0
LINE
  5
7DF4
330
5F6E
100
AcDbEntity
  8
0
100
AcDbLine
 10
785.2920560865487
 20
821.3248126267117
 30
0.0
 11
785.2920560865487
 21
805.1122466267743
 31
0.0
  0
LINE
  5
7DF5
330
5F6E
100
AcDbEntity
  8
0
100
AcDbLine
 10
785.685756086548
 20
804.7185466267755
 30
0.0
 11
818.8982880864132
 21
804.7185466267755
 31
0.0
  0
ARC
  5
7DF6
330
5F6E
100
AcDbEntity
  8
0
100
AcDbCircle
 10
785.685756086548
 20
805.1122466267743
 30
0.0
 40
0.3936999999984252
100
AcDbArc
 50
180.0
 51
270.0
  0
LINE
  5
7DF7
330
5F6E
100
AcDbEntity
  8
0
100
AcDbLine
 10
818.8982880864132
 20
821.7185126267105
 30
0.0
 11
785.685756086548
 21
821.7185126267105
 31
0.0
  0
ARC
  5
7DF8
330
5F6E
100
AcDbEntity
  8
0
100
AcDbCircle
 10
785.685756086548
 20
821.3248126267117
 30
0.0
 40
0.3936999999984252
100
AcDbArc
 50
90.0
 51
180.0
  0
ARC
  5
7DF9
330
5F6E
100
AcDbEntity
  8
0
100
AcDbCircle
 10
818.8982880864132
 20
821.3248126267117
 30
0.0
 40
0.3936999999984252
100
AcDbArc
 50
0.0
 51
90.0
  0
LINE
  5
7DFA
330
5F6E
100
AcDbEntity
  8
0
100
AcDbLine
 10
819.2919880864115
 20
805.1122466267743
 30
0.0
 11
819.2919880864115
 21
821.3248126267117
 31
0.0
  0
ARC
  5
7DFB
330
5F6E
100
AcDbEntity
  8
0
100
AcDbCircle
 10
818.8982880864132
 20
805.1122466267743
 30
0.0
 40
0.3936999999984252
100
AcDbArc
 50
270.0
 51
0.0
  0
CIRCLE
  5
7DFC
330
5F6E
100
AcDbEntity
  8
0
100
AcDbCircle
 10
802.2920220864836
 20
816.9941122330298
 30
0.0
 40
1.77164999999291
  0
CIRCLE
  5
7DFD
330
5F6E
100
AcDbEntity
  8
0
100
AcDbCircle
 10
802.2920220864836
 20
816.9941122330298
 30
0.0
 40
2.165349999991338
  0
CIRCLE
  5
7DFE
330
5F6E
100
AcDbEntity
  8
0
100
AcDbCircle
 10
802.2920220864836
 20
816.9941122330298
 30
0.0
 40
2.283459999990865
  0
LINE
  5
7DFF
330
5F6E
100
AcDbEntity
  8
0
100
AcDbLine
 10
784.2920580865538
 20
845.0094966014052
 30
0.0
 11
785.1936310865518
 21
845.0094966014052
 31
0.0
  0
LINE
  5
7E02
330
5F6E
100
AcDbEntity
  8
0
100
AcDbLine
 10
785.7729692406143
 20
836.1810953204201
 30
0.0
 11
799.955833852082
 21
836.0114967910899
 31
0.0
  0
LINE
  5
7E04
330
5F6E
100
AcDbEntity
  8
0
100
AcDbLine
 10
799.9732107067996
 20
836.0006057263211
 30
0.0
 11
800.0649385741652
 21
835.8168664895474
 31
0.0
  0
ARC
  5
7E05
330
5F6E
100
AcDbEntity
  8
0
100
AcDbCircle
 10
799.9555984759088
 20
835.9918131983551
 30
0.0
 40
0.0196849999999213
100
AcDbArc
 50
26.52967826171395
 51
89.31489038677851
  0
LINE
  5
7E06
330
5F6E
100
AcDbEntity
  8
0
100
AcDbLine
 10
800.1353874977153
 20
835.7732966014429
 30
0.0
 11
800.5006870864891
 21
835.7732966014429
 31
0.0
  0
ARC
  5
7E07
330
5F6E
100
AcDbEntity
  8
0
100
AcDbCircle
 10
800.1353874977153
 20
835.8520366014399
 30
0.0
 40
0.0787399999996851
100
AcDbArc
 50
206.529678261714
 51
270.0
  0
LINE
  5
7E08
330
5F6E
100
AcDbEntity
  8
0
100
AcDbLine
 10
800.5006870864891
 20
835.7732966014429
 30
0.0
 11
804.0833570864712
 21
835.7732966014429
 31
0.0
  0
LINE
  5
7E09
330
5F6E
100
AcDbEntity
  8
0
100
AcDbLine
 10
804.0833570864712
 20
835.7732966014429
 30
0.0
 11
804.448656675245
 21
835.7732966014429
 31
0.0
  0
LINE
  5
7E0A
330
5F6E
100
AcDbEntity
  8
0
100
AcDbLine
 10
804.5191055987947
 20
835.8168664895474
 30
0.0
 11
804.6108334661603
 21
836.0006057263211
 31
0.0
  0
ARC
  5
7E0B
330
5F6E
100
AcDbEntity
  8
0
100
AcDbCircle
 10
804.448656675245
 20
835.8520366014399
 30
0.0
 40
0.0787399999996851
100
AcDbArc
 50
270.0
 51
333.4703217382862
  0
LINE
  5
7E0C
330
5F6E
100
AcDbEntity
  8
0
100
AcDbLine
 10
804.6282103208783
 20
836.0114967910899
 30
0.0
 11
818.8110749323532
 21
836.1810953204201
 31
0.0
  0
ARC
  5
7E0D
330
5F6E
100
AcDbEntity
  8
0
100
AcDbCircle
 10
804.6284456970512
 20
835.9918131983551
 30
0.0
 40
0.0196849999999213
100
AcDbArc
 50
90.6851096132215
 51
153.470321738286
  0
LINE
  5
7E10
330
5F6E
100
AcDbEntity
  8
0
100
AcDbLine
 10
819.3904130864153
 20
845.0094966014052
 30
0.0
 11
820.2919860864065
 21
845.0094966014052
 31
0.0
  0
LINE
  5
7E12
330
5F6E
100
AcDbEntity
  8
0
100
AcDbLine
 10
820.2919860864065
 20
845.0094966014052
 30
0.0
 11
820.2919860864065
 21
845.0685516014104
 31
0.0
  0
LINE
  5
7E13
330
5F6E
100
AcDbEntity
  8
0
100
AcDbLine
 10
820.2919860864065
 20
845.0685516014104
 30
0.0
 11
819.3904130864153
 21
845.0685516014104
 31
0.0
  0
LINE
  5
7E17
330
5F6E
100
AcDbEntity
  8
虚线
 48
0.1
100
AcDbLine
 10
818.9030322736792
 20
836.2412348392938
 30
0.0
 11
818.8146881062738
 21
836.2401701918285
 31
0.0
  0
ARC
  5
7E18
330
5F6E
100
AcDbEntity
  8
虚线
 48
0.1
100
AcDbCircle
 10
804.6244382124335
 20
835.9904158608236
 30
0.0
 40
0.0787399999996851
100
AcDbArc
 50
90.69044573328399
 51
153.4349488182605
  0
LINE
  5
7E19
330
5F6E
100
AcDbEntity
  8
虚线
 48
0.1
100
AcDbLine
 10
804.5540110154165
 20
836.0256294593249
 30
0.0
 11
804.46281288666
 21
835.8432332018109
 31
0.0
  0
ARC
  5
7E1A
330
5F6E
100
AcDbEntity
  8
虚线
 48
0.1
100
AcDbCircle
 10
804.445206087402
 20
835.8520366014399
 30
0.0
 40
0.0196849999999213
100
AcDbArc
 50
270.0
 51
333.4349488182605
  0
LINE
  5
7E1B
330
5F6E
100
AcDbEntity
  8
虚线
 48
0.1
100
AcDbLine
 10
804.445206087402
 20
835.8323516014479
 30
0.0
 11
804.0833570864712
 21
835.8323516014479
 31
0.0
  0
LINE
  5
7E1C
330
5F6E
100
AcDbEntity
  8
虚线
 48
0.1
100
AcDbLine
 10
804.0833570864712
 20
835.8323516014479
 30
0.0
 11
800.5006870864891
 21
835.8323516014479
 31
0.0
  0
LINE
  5
7E1D
330
5F6E
100
AcDbEntity
  8
虚线
 48
0.1
100
AcDbLine
 10
800.5006870864891
 20
835.8323516014479
 30
0.0
 11
800.1388380855583
 21
835.8323516014479
 31
0.0
  0
ARC
  5
7E1E
330
5F6E
100
AcDbEntity
  8
虚线
 48
0.1
100
AcDbCircle
 10
800.1388380855583
 20
835.8520366014399
 30
0.0
 40
0.0196849999999213
100
AcDbArc
 50
206.5650511817395
 51
270.0
  0
LINE
  5
7E1F
330
5F6E
100
AcDbEntity
  8
虚线
 48
0.1
100
AcDbLine
 10
800.1212312863
 20
835.8432332018109
 30
0.0
 11
800.0300331575436
 21
836.0256294593249
 31
0.0
  0
LINE
  5
7E20
330
5F6E
100
AcDbEntity
  8
虚线
 48
0.1
100
AcDbLine
 10
799.9605547979829
 20
836.0691501437369
 30
0.0
 11
785.8284546270198
 21
836.239457987115
 31
0.0
  0
ARC
  5
7E21
330
5F6E
100
AcDbEntity
  8
虚线
 48
0.1
100
AcDbCircle
 10
799.9596059605269
 20
835.9904158608236
 30
0.0
 40
0.0787399999996851
100
AcDbArc
 50
26.56505118173946
 51
89.309554266716
  0
LINE
  5
7E25
330
5F6E
100
AcDbEntity
  8
0
100
AcDbLine
 10
785.1936310865518
 20
845.0685516014104
 30
0.0
 11
784.2920580865538
 21
845.0685516014104
 31
0.0
  0
LINE
  5
7E26
330
5F6E
100
AcDbEntity
  8
虚线
 48
0.1
100
AcDbLine
 10
800.5006870864891
 20
835.7732966014429
 30
0.0
 11
800.5006870864891
 21
835.8323516014479
 31
0.0
  0
LINE
  5
7E27
330
5F6E
100
AcDbEntity
  8
虚线
 48
0.1
100
AcDbLine
 10
804.0833570864712
 20
835.7732966014429
 30
0.0
 11
804.0833570864712
 21
835.8323516014479
 31
0.0
  0
LINE
  5
7E28
330
5F6E
100
AcDbEntity
  8
0
100
AcDbLine
 10
784.2920580865538
 20
845.0685516014104
 30
0.0
 11
784.2920580865538
 21
845.0094966014052
 31
0.0
  0
LINE
  5
7E29
330
5F6E
100
AcDbEntity
  8
0
100
AcDbLine
 10
785.8826060865474
 20
820.9311122330047
 30
0.0
 11
800.0715758978934
 21
817.526848842572
 31
0.0
  0
LINE
  5
7E2A
330
5F6E
100
AcDbEntity
  8
0
100
AcDbLine
 10
804.5124682750666
 20
817.526848842572
 30
0.0
 11
818.7014380864129
 21
820.9311122330047
 31
0.0
  0
LINE
  5
7E2B
330
5F6E
100
AcDbEntity
  8
0
100
AcDbLine
 10
785.8826060865474
 20
805.1122462330813
 30
0.0
 11
800.4425080379657
 21
815.654900765076
 31
0.0
  0
LINE
  5
7E2C
330
5F6E
100
AcDbEntity
  8
0
100
AcDbLine
 10
804.1415361349942
 20
815.654900765076
 30
0.0
 11
818.7014380864129
 21
805.1122462330813
 31
0.0
  0
LINE
  5
7E2D
330
5F6E
100
AcDbEntity
  8
0
100
AcDbLine
 10
820.2919860864065
 20
821.8709364508061
 30
0.0
 11
820.2919860864065
 21
804.5661228026798
 31
0.0
  0
ARC
  5
7E2E
330
5F6E
100
AcDbEntity
  8
0
100
AcDbCircle
 10
820.2132460864099
 20
804.5661228026798
 30
0.0
 40
0.0787399999996851
100
AcDbArc
 50
314.999999999766
 51
0.0
  0
ARC
  5
7E2F
330
5F6E
100
AcDbEntity
  8
0
100
AcDbCircle
 10
820.2132460864099
 20
821.8709364508061
 30
0.0
 40
0.0787399999996851
100
AcDbArc
 50
0.0
 51
45.00000000023397
  0
LINE
  5
7E30
330
5F6E
100
AcDbEntity
  8
0
100
AcDbLine
 10
819.5000894984598
 20
803.7416110388251
 30
0.0
 11
820.2689236743617
 21
804.5104452147278
 31
0.0
  0
LINE
  5
7E31
330
5F6E
100
AcDbEntity
  8
0
100
AcDbLine
 10
785.1936310865518
 20
845.0094966014052
 30
0.0
 11
819.3904130864153
 21
845.0094966014052
 31
0.0
  0
LINE
  5
7E32
330
5F6E
100
AcDbEntity
  8
0
100
AcDbLine
 10
804.6282103208783
 20
836.0114967910899
 30
0.0
 11
799.955833852082
 21
836.0114967910899
 31
0.0
  0
TEXT
  5
7E33
330
5F6E
100
AcDbEntity
  8
标注
100
AcDbText
 10
799.1931079454297
 20
832.0529295479332
 30
0.0
 40
0.7874015748000001
  1
FRONT VIEW
100
AcDbText
  0
TEXT
  5
7E34
330
5F6E
100
AcDbEntity
  8
标注
100
AcDbText
 10
796.4776368287657
 20
795.7355683252846
 30
0.0
 40
0.7874015748000001
  1
OVERHEAD VIEW
100
AcDbText
  0
TEXT
  5
7E35
330
5F6E
100
AcDbEntity
  8
标注
100
AcDbText
 10
802.2984289593244
 20
762.8617894699263
 30
0.0
 40
0.7874015748000001
  1
 CUTOUT
100
AcDbText
  0
LINE
  5
7E36
330
5F6E
100
AcDbEntity
  8
中心线
  6
Continuous
 62
     1
100
AcDbLine
 10
794.6330228787883
 20
763.1149909372302
 30
0.0
 11
800.8498278828472
 21
763.1149909372302
 31
0.0
  0
DIMENSION
  5
7E37
330
5F6E
100
AcDbEntity
  8
标注
100
AcDbDimension
  2
*D48
 10
819.2919880864115
 20
801.3558466969126
 30
0.0
 11
802.2920220864808
 21
801.3558466969126
 31
0.0
 70
    32
 71
     5
 42
33.99993199986159
 73
     0
 74
     0
 75
     0
  3
副本STANDARD
100
AcDbAlignedDimension
 13
785.2920560865497
 23
805.1122466267743
 33
0.0
 14
819.2919880864115
 24
805.1122466267743
 34
0.0
100
AcDbRotatedDimension
  0
DIMENSION
  5
7E45
330
5F6E
100
AcDbEntity
  8
标注
100
AcDbDimension
  2
*D49
 10
820.2919860864065
 20
799.7276867241444
 30
0.0
 11
802.2920220864801
 21
799.7276867241444
 31
0.0
 70
    32
 71
     5
 42
35.99992799985262
 73
     0
 74
     0
 75
     0
  3
副本STANDARD
100
AcDbAlignedDimension
 13
784.2920580865538
 23
804.5661228026798
 33
0.0
 14
820.2919860864065
 24
804.5661228026798
 34
0.0
100
AcDbRotatedDimension
  0
DIMENSION
  5
7E53
330
5F6E
100
AcDbEntity
  8
标注
100
AcDbDimension
  2
*D50
 10
822.111640572629
 20
821.7185126267096
 30
0.0
 11
822.111640572629
 21
813.2185296267429
 31
0.0
 70
    32
 71
     5
 42
16.99996599993449
 73
     0
 74
     0
 75
     0
  3
副本STANDARD
100
AcDbAlignedDimension
 13
818.8982880864132
 23
804.7185466267755
 33
0.0
 14
818.8982880864132
 24
821.7185126267096
 34
0.0
 50
90.0
100
AcDbRotatedDimension
  0
DIMENSION
  5
7E61
330
5F6E
100
AcDbEntity
  8
标注
100
AcDbDimension
  2
*D51
 10
823.7185099434999
 20
822.7185106267059
 30
0.0
 11
823.7185099434995
 21
813.2185296267433
 31
0.0
 70
    32
 71
     5
 42
18.99996199992563
 73
     0
 74
     0
 75
     0
  3
副本STANDARD
100
AcDbAlignedDimension
 13
819.2919880864115
 23
803.7185486267802
 33
0.0
 14
819.2919880864115
 24
822.7185106267059
 34
0.0
 50
90.0
100
AcDbRotatedDimension
  0
DIMENSION
  5
7E6F
330
5F6E
100
AcDbEntity
  8
标注
100
AcDbDimension
  2
*D52
 10
819.3707280864154
 20
768.5632468530062
 30
0.0
 11
802.2920220864836
 21
768.5632468530062
 31
0.0
 70
    32
 71
     5
 42
34.15741199986348
 73
     0
 74
     0
 75
     0
  3
副本STANDARD
100
AcDbAlignedDimension
 13
785.2133160865518
 23
771.234492965925
 33
0.0
 14
819.3707280864154
 24
771.234492965925
 34
0.0
100
AcDbRotatedDimension
  0
DIMENSION
  5
7E7D
330
5F6E
100
AcDbEntity
  8
标注
100
AcDbDimension
  2
*D53
 10
821.3866659182151
 20
787.919498965858
 30
0.0
 11
821.3866659182151
 21
779.3407759658937
 31
0.0
 70
    32
 71
     5
 42
17.15744599992888
 73
     0
 74
     0
 75
     0
  3
副本STANDARD
100
AcDbAlignedDimension
 13
818.8982880864132
 23
770.7620529659291
 33
0.0
 14
818.8982880864132
 24
787.919498965858
 34
0.0
 50
90.0
100
AcDbRotatedDimension
  0
DIMENSION
  5
7E8B
330
5F6E
100
AcDbEntity
  8
标注
100
AcDbDimension
  2
*D54
 10
785.685756086548
 20
771.2344929659247
 30
0.0
 11
786.2430434120469
 21
772.2677064102043
 31
0.0
 70
   164
  1
4-<>
 71
     5
 42
0.4724399999984146
 73
     0
 74
     0
 75
     0
  3
副本STANDARD
100
AcDbRadialDimension
 15
785.3381031485414
 25
770.9145914368662
 35
0.0
 40
0.0
1001
ACAD
1000
DSTYLE
1002
{
1070
   288
1070
     1
1002
}
1001
ACAD_DSTYLE_DIMRADIAL_EXTENSION
1070
   387
1070
     1
1070
   388
1040
3.141592653589792
1070
   390
1040
4.712388980384688
  0
DIMENSION
  5
7E9B
330
5F6E
100
AcDbEntity
  8
标注
100
AcDbDimension
  2
*D55
 10
785.6857560865477
 20
805.1122466267743
 30
0.0
 11
786.4294395996344
 21
806.1358783884584
 31
0.0
 70
   164
  1
4-<>
 71
     5
 42
0.3936999999991713
 73
     0
 74
     0
 75
     0
  3
副本STANDARD
100
AcDbRadialDimension
 15
785.344312341224
 25
804.9162469870328
 35
0.0
 40
0.0
1001
ACAD
1000
DSTYLE
1002
{
1070
   288
1070
     1
1002
}
1001
ACAD_DSTYLE_DIMRADIAL_EXTENSION
1070
   387
1070
     1
1070
   388
1040
3.141592653589792
1070
   390
1040
4.712388980384688
  0
DIMENSION
  5
7EAB
330
5F6E
100
AcDbEntity
  8
标注
100
AcDbDimension
  2
*D56
 10
822.5772705884555
 20
836.0685516014465
 30
0.0
 11
822.5772705884551
 21
840.5685516014287
 31
0.0
 70
    32
 71
     5
 42
8.999999999964073
 73
     0
 74
     0
 75
     0
  3
副本STANDARD
100
AcDbAlignedDimension
 13
820.2919860864065
 23
845.0685516014104
 33
0.0
 14
820.2919860864065
 24
836.0685516014465
 34
0.0
 50
90.0
100
AcDbRotatedDimension
  0
LINE
  5
7FCF
330
5F6E
100
AcDbEntity
  8
标注
100
AcDbLine
 10
785.2920560865487
 20
845.0094966014052
 30
0.0
 11
785.8284546270198
 21
836.239457987115
 31
0.0
  0
LINE
  5
7FD0
330
5F6E
100
AcDbEntity
  8
标注
100
AcDbLine
 10
785.2330010865292
 20
845.0094966014052
 30
0.0
 11
785.7729692406143
 21
836.1810953204201
 31
0.0
  0
LINE
  5
7FD1
330
5F6E
100
AcDbEntity
  8
标注
100
AcDbLine
 10
819.2919880864188
 20
845.0094966014052
 30
0.0
 11
818.7555895459476
 21
836.239457987115
 31
0.0
  0
LINE
  5
7FD2
330
5F6E
100
AcDbEntity
  8
标注
100
AcDbLine
 10
819.3510430864385
 20
845.0094966014052
 30
0.0
 11
818.8110749323532
 21
836.1810953204201
 31
0.0
  0
LINE
  5
7FD3
330
5F6E
100
AcDbEntity
  8
虚线
 48
0.1
100
AcDbLine
 10
818.7555895459476
 20
836.239457987115
 30
0.0
 11
804.6234893749842
 21
836.0691501437369
 31
0.0
  0
ENDSEC
  0
SECTION
  2
OBJECTS
  0
DICTIONARY
  5
5F06
330
0
100
AcDbDictionary
281
     1
  3
ACAD_CIP_PREVIOUS_PRODUCT_INFO
350
8058
  3
ACAD_COLOR
350
5F64
  3
ACAD_DETAILVIEWSTYLE
350
8054
  3
ACAD_GROUP
350
5F07
  3
ACAD_LAYOUT
350
5F63
  3
ACAD_MATERIAL
350
5F0A
  3
ACAD_MLEADERSTYLE
350
5F67
  3
ACAD_MLINESTYLE
350
5F60
  3
ACAD_PLOTSETTINGS
350
5F62
  3
ACAD_PLOTSTYLENAME
350
5F08
  3
ACAD_SCALELIST
350
5F34
  3
ACAD_SECTIONVIEWSTYLE
350
8052
  3
ACAD_TABLESTYLE
350
5F65
  3
ACAD_VISUALSTYLE
350
5F23
  3
ACDB_RECOMPOSE_DATA
350
8061
  3
AcDbVariableDictionary
350
6102
  3
lxx_dict
350
60F2
  0
DICTIONARY
  5
61B7
330
5EFC
100
AcDbDictionary
280
     1
281
     1
  3
ACAD_LAYERSTATES
360
61B8
  0
DICTIONARY
  5
60F4
330
5F56
100
AcDbDictionary
280
     1
281
     1
  3
ADSK_XREC_LAYER_RECONCILED
360
60F5
  0
DICTIONARY
  5
60F6
330
5F72
100
AcDbDictionary
280
     1
281
     1
  3
ADSK_XREC_LAYER_RECONCILED
360
60F7
  0
DICTIONARY
  5
60F8
330
5F7D
100
AcDbDictionary
280
     1
281
     1
  3
ADSK_XREC_LAYER_RECONCILED
360
60F9
  0
DICTIONARY
  5
60FA
330
5F7E
100
AcDbDictionary
280
     1
281
     1
  3
ADSK_XREC_LAYER_RECONCILED
360
60FB
  0
DICTIONARY
  5
7BC2
330
7BC1
100
AcDbDictionary
280
     1
281
     1
  0
DICTIONARY
  5
7D7C
330
7D7B
100
AcDbDictionary
280
     1
281
     1
  0
DICTIONARY
  5
654F
330
5F6E
100
AcDbDictionary
280
     1
281
     1
  3
ACAD_SORTENTS
360
6550
  0
XRECORD
  5
8058
102
{ACAD_REACTORS
330
5F06
102
}
330
5F06
100
AcDbXrecord
280
     1
300
ACD
300
2016
300
ACD_F_S
  0
DICTIONARY
  5
5F64
102
{ACAD_REACTORS
330
5F06
102
}
330
5F06
100
AcDbDictionary
281
     1
  0
DICTIONARY
  5
8054
102
{ACAD_REACTORS
330
5F06
102
}
330
5F06
100
AcDbDictionary
281
     1
  3
Imperial24
350
8055
  0
DICTIONARY
  5
5F07
102
{ACAD_REACTORS
330
5F06
102
}
330
5F06
100
AcDbDictionary
281
     1
  0
DICTIONARY
  5
5F63
102
{ACAD_REACTORS
330
5F06
102
}
330
5F06
100
AcDbDictionary
281
     1
  3
Model
350
5F71
  3
布局1
350
5F6D
  0
DICTIONARY
  5
5F0A
102
{ACAD_REACTORS
330
5F06
102
}
330
5F06
100
AcDbDictionary
281
     1
  3
ByBlock
350
5F13
  3
ByLayer
350
5F0B
  3
Global
350
5F1B
  0
DICTIONARY
  5
5F67
102
{ACAD_REACTORS
330
5F06
102
}
330
5F06
100
AcDbDictionary
281
     1
  3
Standard
350
5F68
  0
DICTIONARY
  5
5F60
102
{ACAD_REACTORS
330
5F06
102
}
330
5F06
100
AcDbDictionary
281
     1
  3
Standard
350
5F61
  0
DICTIONARY
  5
5F62
102
{ACAD_REACTORS
330
5F06
102
}
330
5F06
100
AcDbDictionary
281
     1
  0
ACDBDICTIONARYWDFLT
  5
5F08
102
{ACAD_REACTORS
330
5F06
102
}
330
5F06
100
AcDbDictionary
281
     1
  3
Normal
350
5F09
100
AcDbDictionaryWithDefault
340
5F09
  0
DICTIONARY
  5
5F34
102
{ACAD_REACTORS
330
5F06
102
}
330
5F06
100
AcDbDictionary
281
     1
  3
A0
350
5F35
  3
A1
350
5F36
  3
A2
350
5F37
  3
A3
350
5F38
  3
A4
350
5F39
  3
A5
350
5F3A
  3
A6
350
5F3B
  3
A7
350
5F3C
  3
A8
350
5F3D
  3
A9
350
5F3E
  3
B0
350
5F3F
  3
B1
350
5F40
  3
B2
350
5F41
  3
B3
350
5F42
  3
B4
350
5F43
  3
B5
350
5F44
  3
B6
350
5F45
  3
B7
350
5F46
  3
B8
350
5F47
  3
B9
350
5F48
  3
C0
350
5F49
  3
C1
350
5F4A
  3
C2
350
5F4B
  3
C3
350
5F4C
  3
C4
350
5F4D
  3
C5
350
5F4E
  3
C6
350
5F4F
  3
C7
350
5F50
  3
C8
350
5F51
  3
C9
350
5F52
  3
D0
350
5F53
  3
D1
350
5F54
  3
D2
350
5F55
  0
DICTIONARY
  5
8052
102
{ACAD_REACTORS
330
5F06
102
}
330
5F06
100
AcDbDictionary
281
     1
  3
Imperial24
350
8053
  0
DICTIONARY
  5
5F65
102
{ACAD_REACTORS
330
5F06
102
}
330
5F06
100
AcDbDictionary
281
     1
  3
Standard
350
5F66
  0
DICTIONARY
  5
5F23
102
{ACAD_REACTORS
330
5F06
102
}
330
5F06
100
AcDbDictionary
281
     1
  3
2dWireframe
350
5F29
  3
3D Hidden
350
5F2B
  3
3dWireframe
350
5F2A
  3
Basic
350
5F28
  3
Brighten
350
5F2F
  3
ColorChange
350
5F33
  3
Conceptual
350
5F2C
  3
Dim
350
5F2E
  3
EdgeColorOff
350
8051
  3
Facepattern
350
5F32
  3
Flat
350
5F24
  3
FlatWithEdges
350
5F25
  3
Gouraud
350
5F26
  3
GouraudWithEdges
350
5F27
  3
Hidden
350
8049
  3
JitterOff
350
804F
  3
Linepattern
350
5F31
  3
OverhangOff
350
8050
  3
Realistic
350
5F2D
  3
Shaded
350
804E
  3
Shaded with edges
350
804D
  3
Shades of Gray
350
804A
  3
Sketchy
350
804B
  3
Thicken
350
5F30
  3
Wireframe
350
8048
  3
X-Ray
350
804C
  0
XRECORD
  5
8061
102
{ACAD_REACTORS
330
5F06
102
}
330
5F06
100
AcDbXrecord
280
     1
 90
        1
330
5F66
  0
DICTIONARY
  5
6102
102
{ACAD_REACTORS
330
5F06
102
}
330
5F06
100
AcDbDictionary
281
     1
  3
CANNOSCALE
350
6105
  3
CMLEADERSTYLE
350
6104
  3
CTABLESTYLE
350
6103
  3
CVIEWDETAILSTYLE
350
8059
  3
CVIEWSECTIONSTYLE
350
805A
  3
DIMASSOC
350
6108
  3
INDEXCTL
350
6107
  3
LAYEREVAL
350
805D
  3
LAYERNOTIFY
350
805E
  3
LIGHTINGUNITS
350
805C
  3
MSLTSCALE
350
805B
  3
SORTENTS
350
6106
  0
DICTIONARY
  5
60F2
102
{ACAD_REACTORS
330
5F06
102
}
330
5F06
100
AcDbDictionary
281
     1
  3
lxx_dimth
350
60F3
  0
DICTIONARY
  5
61B8
102
{ACAD_REACTORS
330
61B7
102
}
330
61B7
100
AcDbDictionary
281
     1
  0
XRECORD
  5
60F5
102
{ACAD_REACTORS
330
60F4
102
}
330
60F4
100
AcDbXrecord
280
     1
290
     1
  0
XRECORD
  5
60F7
102
{ACAD_REACTORS
330
60F6
102
}
330
60F6
100
AcDbXrecord
280
     1
290
     1
  0
XRECORD
  5
60F9
102
{ACAD_REACTORS
330
60F8
102
}
330
60F8
100
AcDbXrecord
280
     1
290
     1
  0
XRECORD
  5
60FB
102
{ACAD_REACTORS
330
60FA
102
}
330
60FA
100
AcDbXrecord
280
     1
290
     1
  0
SORTENTSTABLE
  5
6550
102
{ACAD_REACTORS
330
654F
102
}
330
654F
100
AcDbSortentsTable
330
5F6E
331
7E35
  5
7E36
331
7DDF
  5
7DDF
331
7E31
  5
7E32
331
7E12
  5
7E12
331
7DEE
  5
7DEE
331
7DEA
  5
7DEA
331
7DE6
  5
7DE6
331
7E26
  5
7E27
331
7DE2
  5
7DE2
331
7E6F
  5
7E7D
331
7E1E
  5
7E1F
331
7DFD
  5
7DFD
331
7E1A
  5
7E1B
331
7DF9
  5
7DF9
331
7DF5
  5
7DF5
331
7DF1
  5
7DF1
331
7E2D
  5
7E2E
331
7E29
  5
7E2A
331
7E0C
  5
7E0C
331
7FD2
  5
7FD3
331
7E08
  5
7E08
331
7E04
  5
7E04
331
7E36
  5
7E37
331
7E32
  5
7E33
331
7E17
  5
7E17
331
7E13
  5
7E13
331
7DEF
  5
7DEF
331
7DEB
  5
7DEB
331
7DE7
  5
7DE7
331
7E45
  5
7E53
331
7E27
  5
7E28
331
7DE3
  5
7DE3
331
7E1F
  5
7E20
331
7DFE
  5
7DFE
331
7E1B
  5
7E1C
331
7DFA
  5
7DFA
331
7DF6
  5
7DF6
331
7DF2
  5
7DF2
331
7E2E
  5
7E2F
331
7E2A
  5
7E2B
331
7E0D
  5
7E0D
331
7E8B
  5
7E9B
331
7FD3
  5
7E18
331
7E09
  5
7E09
331
7E05
  5
7E05
331
7E37
  5
7E45
331
7E33
  5
7E34
331
7DDD
  5
7DDD
331
7E10
  5
7E10
331
7DEC
  5
7DEC
331
7DE8
  5
7DE8
331
7DE4
  5
7DE4
331
7DE0
  5
7DE0
331
7E20
  5
7E21
331
7DFF
  5
7DFF
331
7E1C
  5
7E1D
331
7DFB
  5
7DFB
331
7E18
  5
7E19
331
7DF7
  5
7DF7
331
7FCF
  5
7FD0
331
7DF3
  5
7DF3
331
7E61
  5
7E6F
331
7E2F
  5
7E30
331
7E2B
  5
7E2C
331
7E0A
  5
7E0A
331
7FD0
  5
7FD1
331
7E06
  5
7E06
331
7E02
  5
7E02
331
7E34
  5
7E35
331
7EAB
  5
7FB9
331
7DDE
  5
7DDE
331
7E30
  5
7E31
331
7E9B
  5
7EAB
331
7E53
  5
7E61
331
7DED
  5
7DED
331
7DE9
  5
7DE9
331
7DE5
  5
7DE5
331
7E25
  5
7E26
331
7DE1
  5
7DE1
331
7E21
  5
7E25
331
7E1D
  5
7E1E
331
7DFC
  5
7DFC
331
7E19
  5
7E1A
331
7DF8
  5
7DF8
331
7DF4
  5
7DF4
331
7DF0
  5
7DF0
331
7E2C
  5
7E2D
331
7E28
  5
7E29
331
7E0B
  5
7E0B
331
7FD1
  5
7FD2
331
7E07
  5
7E07
331
7E7D
  5
7E8B
  0
ACDBDETAILVIEWSTYLE
  5
8055
102
{ACAD_XDICTIONARY
360
8098
102
}
102
{ACAD_REACTORS
330
8054
102
}
330
8054
100
AcDbModelDocViewStyle
 70
     0
  3
Imperial24
290
     0
100
AcDbDetailViewStyle
 70
     0
 71
     0
 90
        3
 71
     1
340
5F57
 62
   256
 40
0.24
340
0
 62
   256
 40
0.24
300

 40
0.36
280
     3
 71
     2
340
5F5E
 90
       25
 62
   256
 71
     3
340
5F57
 62
   256
 40
0.24
 90
        1
 40
0.75
 90
        1
300
%<\AcVar ViewType \f "%tc1">% %<\AcVar ViewDetailId>%\PSCALE %<\AcVar ViewScale \f "%sn">%
 71
     4
340
5F5E
 90
       25
 62
   256
340
5F5E
 90
       25
 62
   256
280
     0
  0
LAYOUT
  5
5F71
102
{ACAD_REACTORS
330
5F63
102
}
330
5F63
100
AcDbPlotSettings
  1

  2
\\192.168.1.64\Canon LBP2900
  4
A4
  6

 40
5.873749732971191
 41
6.805061340332031
 42
5.873748779296875
 43
4.857757568359375
 44
209.9733276367186
 45
296.9259948730469
 46
0.0
 47
0.0
 48
0.0
 49
0.0
140
0.0
141
0.0
142
1.0
143
22.50920977447151
 70
 11952
 72
     0
 73
     1
 74
     0
  7

 75
     0
147
0.0444262597407633
 76
     0
 77
     2
 78
   300
148
-26332.96073918523
149
-1147.872668404557
100
AcDbLayout
  1
Model
 70
     1
 71
     0
 10
0.0
 20
0.0
 11
12.0
 21
9.0
 12
0.0
 22
0.0
 32
0.0
 14
0.0
 24
0.0
 34
0.0
 15
0.0
 25
0.0
 35
0.0
146
0.0
 13
0.0
 23
0.0
 33
0.0
 16
1.0
 26
0.0
 36
0.0
 17
0.0
 27
1.0
 37
0.0
 76
     0
330
5F6E
331
5F73
1001
ACAD_PSEXT
1000
\\192.168.1.64\Canon LBP2900
1000
Canon LBP2900
1000
\\192.168.1.64
1000

1070
     0
  0
LAYOUT
  5
5F6D
102
{ACAD_REACTORS
330
5F63
102
}
330
5F63
100
AcDbPlotSettings
  1

  2
\\192.168.1.64\Canon LBP2900
  4

  6

 40
0.0
 41
0.0
 42
0.0
 43
0.0
 44
0.0
 45
0.0
 46
0.0
 47
0.0
 48
0.0
 49
0.0
140
0.0
141
0.0
142
1.0
143
1.0
 70
   688
 72
     0
 73
     0
 74
     5
  7

 75
    16
147
1.0
 76
     0
 77
     2
 78
   300
148
0.0
149
0.0
100
AcDbLayout
  1
布局1
 70
     1
 71
     1
 10
0.0
 20
0.0
 11
12.0
 21
9.0
 12
0.0
 22
0.0
 32
0.0
 14
1.000000000000000E+20
 24
1.000000000000000E+20
 34
1.000000000000000E+20
 15
-1.000000000000000E+20
 25
-1.000000000000000E+20
 35
-1.000000000000000E+20
146
0.0
 13
0.0
 23
0.0
 33
0.0
 16
1.0
 26
0.0
 36
0.0
 17
0.0
 27
1.0
 37
0.0
 76
     0
330
5F6A
  0
MATERIAL
  5
5F13
102
{ACAD_XDICTIONARY
360
5F14
102
}
102
{ACAD_REACTORS
330
5F0A
102
}
330
5F0A
100
AcDbMaterial
  1
ByBlock
 72
     0
 43
0.0208333333333333
 43
0.0
 43
0.0
 43
0.0
 43
0.0
 43
0.0208333333333333
 43
0.0
 43
0.0
 43
0.0
 43
0.0
 43
1.0
 43
0.0
 43
0.0
 43
0.0
 43
0.0
 43
1.0
 77
     0
 47
0.0208333333333333
 47
0.0
 47
0.0
 47
0.0
 47
0.0
 47
0.0208333333333333
 47
0.0
 47
0.0
 47
0.0
 47
0.0
 47
1.0
 47
0.0
 47
0.0
 47
0.0
 47
0.0
 47
1.0
171
     0
 49
0.0208333333333333
 49
0.0
 49
0.0
 49
0.0
 49
0.0
 49
0.0208333333333333
 49
0.0
 49
0.0
 49
0.0
 49
0.0
 49
1.0
 49
0.0
 49
0.0
 49
0.0
 49
0.0
 49
1.0
175
     0
142
0.0208333333333333
142
0.0
142
0.0
142
0.0
142
0.0
142
0.0208333333333333
142
0.0
142
0.0
142
0.0
142
0.0
142
1.0
142
0.0
142
0.0
142
0.0
142
0.0
142
1.0
179
     0
144
0.0208333333333333
144
0.0
144
0.0
144
0.0
144
0.0
144
0.0208333333333333
144
0.0
144
0.0
144
0.0
144
0.0
144
1.0
144
0.0
144
0.0
144
0.0
144
0.0
144
1.0
147
0.0208333333333333
147
0.0
147
0.0
147
0.0
147
0.0
147
0.0208333333333333
147
0.0
147
0.0
147
0.0
147
0.0
147
1.0
147
0.0
147
0.0
147
0.0
147
0.0
147
1.0
  0
MATERIAL
  5
5F0B
102
{ACAD_XDICTIONARY
360
5F0C
102
}
102
{ACAD_REACTORS
330
5F0A
102
}
330
5F0A
100
AcDbMaterial
  1
ByLayer
 72
     0
 43
0.0208333333333333
 43
0.0
 43
0.0
 43
0.0
 43
0.0
 43
0.0208333333333333
 43
0.0
 43
0.0
 43
0.0
 43
0.0
 43
1.0
 43
0.0
 43
0.0
 43
0.0
 43
0.0
 43
1.0
 77
     0
 47
0.0208333333333333
 47
0.0
 47
0.0
 47
0.0
 47
0.0
 47
0.0208333333333333
 47
0.0
 47
0.0
 47
0.0
 47
0.0
 47
1.0
 47
0.0
 47
0.0
 47
0.0
 47
0.0
 47
1.0
171
     0
 49
0.0208333333333333
 49
0.0
 49
0.0
 49
0.0
 49
0.0
 49
0.0208333333333333
 49
0.0
 49
0.0
 49
0.0
 49
0.0
 49
1.0
 49
0.0
 49
0.0
 49
0.0
 49
0.0
 49
1.0
175
     0
142
0.0208333333333333
142
0.0
142
0.0
142
0.0
142
0.0
142
0.0208333333333333
142
0.0
142
0.0
142
0.0
142
0.0
142
1.0
142
0.0
142
0.0
142
0.0
142
0.0
142
1.0
179
     0
144
0.0208333333333333
144
0.0
144
0.0
144
0.0
144
0.0
144
0.0208333333333333
144
0.0
144
0.0
144
0.0
144
0.0
144
1.0
144
0.0
144
0.0
144
0.0
144
0.0
144
1.0
147
0.0208333333333333
147
0.0
147
0.0
147
0.0
147
0.0
147
0.0208333333333333
147
0.0
147
0.0
147
0.0
147
0.0
147
1.0
147
0.0
147
0.0
147
0.0
147
0.0
147
1.0
  0
MATERIAL
  5
5F1B
102
{ACAD_XDICTIONARY
360
5F1C
102
}
102
{ACAD_REACTORS
330
5F0A
102
}
330
5F0A
100
AcDbMaterial
  1
Global
 72
     0
 43
0.0208333333333333
 43
0.0
 43
0.0
 43
0.0
 43
0.0
 43
0.0208333333333333
 43
0.0
 43
0.0
 43
0.0
 43
0.0
 43
1.0
 43
0.0
 43
0.0
 43
0.0
 43
0.0
 43
1.0
 77
     0
 47
0.0208333333333333
 47
0.0
 47
0.0
 47
0.0
 47
0.0
 47
0.0208333333333333
 47
0.0
 47
0.0
 47
0.0
 47
0.0
 47
1.0
 47
0.0
 47
0.0
 47
0.0
 47
0.0
 47
1.0
171
     0
 49
0.0208333333333333
 49
0.0
 49
0.0
 49
0.0
 49
0.0
 49
0.0208333333333333
 49
0.0
 49
0.0
 49
0.0
 49
0.0
 49
1.0
 49
0.0
 49
0.0
 49
0.0
 49
0.0
 49
1.0
175
     0
142
0.0208333333333333
142
0.0
142
0.0
142
0.0
142
0.0
142
0.0208333333333333
142
0.0
142
0.0
142
0.0
142
0.0
142
1.0
142
0.0
142
0.0
142
0.0
142
0.0
142
1.0
179
     0
144
0.0208333333333333
144
0.0
144
0.0
144
0.0
144
0.0
144
0.0208333333333333
144
0.0
144
0.0
144
0.0
144
0.0
144
1.0
144
0.0
144
0.0
144
0.0
144
0.0
144
1.0
147
0.0208333333333333
147
0.0
147
0.0
147
0.0
147
0.0
147
0.0208333333333333
147
0.0
147
0.0
147
0.0
147
0.0
147
1.0
147
0.0
147
0.0
147
0.0
147
0.0
147
1.0
  0
MLEADERSTYLE
  5
5F68
102
{ACAD_REACTORS
330
5F67
102
}
330
5F67
100
AcDbMLeaderStyle
170
     2
171
     1
172
     0
 90
        2
 40
0.0
 41
0.0
173
     1
 91
-1056964608
340
5F5C
 92
       -2
290
     1
 42
0.09
291
     1
 43
0.36
  3
Standard
 44
0.18
300

342
5F57
174
     1
178
     6
175
     1
176
     0
 93
-1056964608
 45
0.18
292
     0
297
     0
 46
0.18
 94
-1056964608
 47
1.0
 49
1.0
140
1.0
293
     1
141
0.0
294
     1
177
     0
142
1.0
295
     0
296
     0
143
0.125
1001
ACAD_MLEADERVER
1070
     2
  0
MLINESTYLE
  5
5F61
102
{ACAD_REACTORS
330
5F60
102
}
330
5F60
100
AcDbMlineStyle
  2
STANDARD
 70
     0
  3

 62
   256
 51
90.0
 52
90.0
 71
     2
 49
0.5
 62
   256
  6
BYLAYER
 49
-0.5
 62
   256
  6
BYLAYER
  0
ACDBPLACEHOLDER
  5
5F09
102
{ACAD_REACTORS
330
5F08
102
}
330
5F08
  0
SCALE
  5
5F35
102
{ACAD_REACTORS
330
5F34
102
}
330
5F34
100
AcDbScale
 70
     0
300
1:1
140
1.0
141
1.0
290
     1
  0
SCALE
  5
5F36
102
{ACAD_REACTORS
330
5F34
102
}
330
5F34
100
AcDbScale
 70
     0
300
1:2
140
1.0
141
2.0
290
     0
  0
SCALE
  5
5F37
102
{ACAD_REACTORS
330
5F34
102
}
330
5F34
100
AcDbScale
 70
     0
300
1:4
140
1.0
141
4.0
290
     0
  0
SCALE
  5
5F38
102
{ACAD_REACTORS
330
5F34
102
}
330
5F34
100
AcDbScale
 70
     0
300
1:5
140
1.0
141
5.0
290
     0
  0
SCALE
  5
5F39
102
{ACAD_REACTORS
330
5F34
102
}
330
5F34
100
AcDbScale
 70
     0
300
1:8
140
1.0
141
8.0
290
     0
  0
SCALE
  5
5F3A
102
{ACAD_REACTORS
330
5F34
102
}
330
5F34
100
AcDbScale
 70
     0
300
1:10
140
1.0
141
10.0
290
     0
  0
SCALE
  5
5F3B
102
{ACAD_REACTORS
330
5F34
102
}
330
5F34
100
AcDbScale
 70
     0
300
1:16
140
1.0
141
16.0
290
     0
  0
SCALE
  5
5F3C
102
{ACAD_REACTORS
330
5F34
102
}
330
5F34
100
AcDbScale
 70
     0
300
1:20
140
1.0
141
20.0
290
     0
  0
SCALE
  5
5F3D
102
{ACAD_REACTORS
330
5F34
102
}
330
5F34
100
AcDbScale
 70
     0
300
1:30
140
1.0
141
30.0
290
     0
  0
SCALE
  5
5F3E
102
{ACAD_REACTORS
330
5F34
102
}
330
5F34
100
AcDbScale
 70
     0
300
1:40
140
1.0
141
40.0
290
     0
  0
SCALE
  5
5F3F
102
{ACAD_REACTORS
330
5F34
102
}
330
5F34
100
AcDbScale
 70
     0
300
1:50
140
1.0
141
50.0
290
     0
  0
SCALE
  5
5F40
102
{ACAD_REACTORS
330
5F34
102
}
330
5F34
100
AcDbScale
 70
     0
300
1:100
140
1.0
141
100.0
290
     0
  0
SCALE
  5
5F41
102
{ACAD_REACTORS
330
5F34
102
}
330
5F34
100
AcDbScale
 70
     0
300
2:1
140
2.0
141
1.0
290
     0
  0
SCALE
  5
5F42
102
{ACAD_REACTORS
330
5F34
102
}
330
5F34
100
AcDbScale
 70
     0
300
4:1
140
4.0
141
1.0
290
     0
  0
SCALE
  5
5F43
102
{ACAD_REACTORS
330
5F34
102
}
330
5F34
100
AcDbScale
 70
     0
300
8:1
140
8.0
141
1.0
290
     0
  0
SCALE
  5
5F44
102
{ACAD_REACTORS
330
5F34
102
}
330
5F34
100
AcDbScale
 70
     0
300
10:1
140
10.0
141
1.0
290
     0
  0
SCALE
  5
5F45
102
{ACAD_REACTORS
330
5F34
102
}
330
5F34
100
AcDbScale
 70
     0
300
100:1
140
100.0
141
1.0
290
     0
  0
SCALE
  5
5F46
102
{ACAD_REACTORS
330
5F34
102
}
330
5F34
100
AcDbScale
 70
     0
300
1/128" = 1'-0"
140
0.0078125
141
12.0
290
     0
  0
SCALE
  5
5F47
102
{ACAD_REACTORS
330
5F34
102
}
330
5F34
100
AcDbScale
 70
     0
300
1/64" = 1'-0"
140
0.015625
141
12.0
290
     0
  0
SCALE
  5
5F48
102
{ACAD_REACTORS
330
5F34
102
}
330
5F34
100
AcDbScale
 70
     0
300
1/32" = 1'-0"
140
0.03125
141
12.0
290
     0
  0
SCALE
  5
5F49
102
{ACAD_REACTORS
330
5F34
102
}
330
5F34
100
AcDbScale
 70
     0
300
1/16" = 1'-0"
140
0.0625
141
12.0
290
     0
  0
SCALE
  5
5F4A
102
{ACAD_REACTORS
330
5F34
102
}
330
5F34
100
AcDbScale
 70
     0
300
3/32" = 1'-0"
140
0.09375
141
12.0
290
     0
  0
SCALE
  5
5F4B
102
{ACAD_REACTORS
330
5F34
102
}
330
5F34
100
AcDbScale
 70
     0
300
1/8" = 1'-0"
140
0.125
141
12.0
290
     0
  0
SCALE
  5
5F4C
102
{ACAD_REACTORS
330
5F34
102
}
330
5F34
100
AcDbScale
 70
     0
300
3/16" = 1'-0"
140
0.1875
141
12.0
290
     0
  0
SCALE
  5
5F4D
102
{ACAD_REACTORS
330
5F34
102
}
330
5F34
100
AcDbScale
 70
     0
300
1/4" = 1'-0"
140
0.25
141
12.0
290
     0
  0
SCALE
  5
5F4E
102
{ACAD_REACTORS
330
5F34
102
}
330
5F34
100
AcDbScale
 70
     0
300
3/8" = 1'-0"
140
0.375
141
12.0
290
     0
  0
SCALE
  5
5F4F
102
{ACAD_REACTORS
330
5F34
102
}
330
5F34
100
AcDbScale
 70
     0
300
1/2" = 1'-0"
140
0.5
141
12.0
290
     0
  0
SCALE
  5
5F50
102
{ACAD_REACTORS
330
5F34
102
}
330
5F34
100
AcDbScale
 70
     0
300
3/4" = 1'-0"
140
0.75
141
12.0
290
     0
  0
SCALE
  5
5F51
102
{ACAD_REACTORS
330
5F34
102
}
330
5F34
100
AcDbScale
 70
     0
300
1" = 1'-0"
140
1.0
141
12.0
290
     0
  0
SCALE
  5
5F52
102
{ACAD_REACTORS
330
5F34
102
}
330
5F34
100
AcDbScale
 70
     0
300
1-1/2" = 1'-0"
140
1.5
141
12.0
290
     0
  0
SCALE
  5
5F53
102
{ACAD_REACTORS
330
5F34
102
}
330
5F34
100
AcDbScale
 70
     0
300
3" = 1'-0"
140
3.0
141
12.0
290
     0
  0
SCALE
  5
5F54
102
{ACAD_REACTORS
330
5F34
102
}
330
5F34
100
AcDbScale
 70
     0
300
6" = 1'-0"
140
6.0
141
12.0
290
     0
  0
SCALE
  5
5F55
102
{ACAD_REACTORS
330
5F34
102
}
330
5F34
100
AcDbScale
 70
     0
300
1'-0" = 1'-0"
140
12.0
141
12.0
290
     0
  0
ACDBSECTIONVIEWSTYLE
  5
8053
102
{ACAD_XDICTIONARY
360
8096
102
}
102
{ACAD_REACTORS
330
8052
102
}
330
8052
100
AcDbModelDocViewStyle
 70
     0
  3
Imperial24
290
     0
100
AcDbSectionViewStyle
 70
     0
 71
     0
 90
       78
 71
     1
340
5F57
 62
   256
 40
0.24
340
0
340
0
 62
   256
 40
0.24
300
I, O, Q, S, X, Z
 40
0.48
 90
        3
 40
0.18
 90
        1
 71
     2
340
5F5E
 90
       25
 62
   256
340
5F5E
 90
       50
 62
   256
 40
0.24
 40
0.0
 40
0.24
 71
     3
340
5F57
 62
   256
 40
0.24
 90
        1
 40
0.75
 90
        1
300
%<\AcVar ViewType \f "%tc1">% %<\AcVar ViewSectionStartId>%-%<\AcVar ViewSectionEndId>%\PSCALE %<\AcVar ViewScale \f "%sn">%
 71
     4
 62
   256
 62
   257
300
ANSI31
 40
1.0
 90
        0
290
     0
290
     0
 90
        6
 40
0.0
 40
1.570796326794896
 40
0.2617993877991494
 40
1.308996938995747
 40
-0.2617993877991494
 40
1.832595714594046
  0
TABLESTYLE
  5
5F66
102
{ACAD_XDICTIONARY
360
7F2F
102
}
102
{ACAD_REACTORS
330
5F65
102
}
330
5F65
100
AcDbTableStyle
  3
Standard
 70
     0
 71
     0
 40
0.06
 41
0.06
280
     0
281
     0
  7
STANDARD
140
0.18
170
     2
 62
     0
 63
     7
283
     0
 90
      512
 91
        0
  1

274
    -2
284
     1
 64
     0
275
    -2
285
     1
 65
     0
276
    -2
286
     1
 66
     0
277
    -2
287
     1
 67
     0
278
    -2
288
     1
 68
     0
279
    -2
289
     1
 69
     0
  7
STANDARD
140
0.25
170
     5
 62
     0
 63
     7
283
     0
 90
      512
 91
        0
  1

274
    -2
284
     1
 64
     0
275
    -2
285
     1
 65
     0
276
    -2
286
     1
 66
     0
277
    -2
287
     1
 67
     0
278
    -2
288
     1
 68
     0
279
    -2
289
     1
 69
     0
  7
STANDARD
140
0.18
170
     5
 62
     0
 63
     7
283
     0
 90
      512
 91
        0
  1

274
    -2
284
     1
 64
     0
275
    -2
285
     1
 65
     0
276
    -2
286
     1
 66
     0
277
    -2
287
     1
 67
     0
278
    -2
288
     1
 68
     0
279
    -2
289
     1
 69
     0
  0
VISUALSTYLE
  5
5F29
102
{ACAD_XDICTIONARY
360
806C
102
}
102
{ACAD_REACTORS
330
5F23
102
}
330
5F23
100
AcDbVisualStyle
  2

 70
     4
 71
     0
 72
     2
 73
     0
 90
        0
 40
-0.6
 41
-30.0
 62
     5
 63
     7
 74
     1
 91
        4
 64
     7
 65
   257
 75
     1
175
     1
 42
1.0
 92
        0
 66
   257
 43
1.0
 76
     1
 77
     6
 78
     2
 67
     7
 79
     5
170
     0
171
     0
290
     0
174
     0
 93
        1
 44
0.0
173
     0
291
     0
 45
0.0
1001
ACAD
1000
AcDbSavedByObjectVersion
1070
     0
  0
VISUALSTYLE
  5
5F2B
102
{ACAD_XDICTIONARY
360
8070
102
}
102
{ACAD_REACTORS
330
5F23
102
}
330
5F23
100
AcDbVisualStyle
  2

 70
     6
 71
     1
 72
     2
 73
     2
 90
        0
 40
-0.6
 41
-30.0
 62
     5
 63
     7
 74
     2
 91
        2
 64
     7
 65
   257
 75
     2
175
     1
 42
40.0
 92
        0
 66
   257
 43
1.0
 76
     1
 77
     6
 78
     2
 67
     7
 79
     3
170
     0
171
     0
290
     0
174
     0
 93
        1
 44
0.0
173
     0
291
     0
 45
0.0
1001
ACAD
1000
AcDbSavedByObjectVersion
1070
     0
  0
VISUALSTYLE
  5
5F2A
102
{ACAD_XDICTIONARY
360
806E
102
}
102
{ACAD_REACTORS
330
5F23
102
}
330
5F23
100
AcDbVisualStyle
  2

 70
     5
 71
     0
 72
     2
 73
     0
 90
        0
 40
-0.6
 41
-30.0
 62
     5
 63
     7
 74
     1
 91
        4
 64
     7
 65
   257
 75
     1
175
     1
 42
1.0
 92
        0
 66
   257
 43
1.0
 76
     1
 77
     6
 78
     2
 67
     7
 79
     5
170
     0
171
     0
290
     0
174
     0
 93
        1
 44
0.0
173
     0
291
     0
 45
0.0
1001
ACAD
1000
AcDbSavedByObjectVersion
1070
     0
  0
VISUALSTYLE
  5
5F28
102
{ACAD_XDICTIONARY
360
806A
102
}
102
{ACAD_REACTORS
330
5F23
102
}
330
5F23
100
AcDbVisualStyle
  2

 70
     7
 71
     1
 72
     0
 73
     1
 90
        0
 40
-0.6
 41
-30.0
 62
     5
 63
     7
 74
     0
 91
        4
 64
     7
 65
   257
 75
     1
175
     1
 42
1.0
 92
        8
 66
     7
 43
1.0
 76
     1
 77
     6
 78
     2
 67
     7
 79
     5
170
     0
171
     0
290
     0
174
     0
 93
        1
 44
0.0
173
     0
291
     1
 45
0.0
1001
ACAD
1000
AcDbSavedByObjectVersion
1070
     0
  0
VISUALSTYLE
  5
5F2F
102
{ACAD_XDICTIONARY
360
8078
102
}
102
{ACAD_REACTORS
330
5F23
102
}
330
5F23
100
AcDbVisualStyle
  2

 70
    12
 71
     2
 72
     2
 73
     0
 90
        0
 40
-0.6
 41
-30.0
 62
     5
 63
     7
 74
     1
 91
        4
 64
     7
 65
   257
 75
     1
175
     1
 42
1.0
 92
        8
 66
     7
 43
1.0
 76
     1
 77
     6
 78
     2
 67
     7
 79
     5
170
     0
171
     0
290
     0
174
     0
 93
        1
 44
50.0
173
     0
291
     1
 45
0.0
1001
ACAD
1000
AcDbSavedByObjectVersion
1070
     0
  0
VISUALSTYLE
  5
5F33
102
{ACAD_XDICTIONARY
360
8080
102
}
102
{ACAD_REACTORS
330
5F23
102
}
330
5F23
100
AcDbVisualStyle
  2

 70
    16
 71
     2
 72
     2
 73
     3
 90
        0
 40
-0.6
 41
-30.0
 62
     5
 63
     8
 74
     1
 91
        4
 64
     7
 65
   257
 75
     1
175
     1
 42
1.0
 92
        8
 66
     8
 43
1.0
 76
     1
 77
     6
 78
     2
 67
     7
 79
     5
170
     0
171
     0
290
     0
174
     0
 93
        1
 44
0.0
173
     0
291
     1
 45
0.0
1001
ACAD
1000
AcDbSavedByObjectVersion
1070
     0
  0
VISUALSTYLE
  5
5F2C
102
{ACAD_XDICTIONARY
360
8072
102
}
102
{ACAD_REACTORS
330
5F23
102
}
330
5F23
100
AcDbVisualStyle
  2

 70
     9
 71
     3
 72
     2
 73
     0
 90
        0
 40
-0.6
 41
-30.0
 62
     5
 63
     7
 74
     2
 91
        2
 64
     7
 65
   257
 75
     1
175
     1
 42
40.0
 92
        8
 66
     7
 43
1.0
 76
     1
 77
     6
 78
     2
 67
     7
 79
     3
170
     0
171
     0
290
     0
174
     0
 93
        1
 44
0.0
173
     0
291
     0
 45
0.0
1001
ACAD
1000
AcDbSavedByObjectVersion
1070
     0
  0
VISUALSTYLE
  5
5F2E
102
{ACAD_XDICTIONARY
360
8076
102
}
102
{ACAD_REACTORS
330
5F23
102
}
330
5F23
100
AcDbVisualStyle
  2

 70
    11
 71
     2
 72
     2
 73
     0
 90
        0
 40
-0.6
 41
-30.0
 62
     5
 63
     7
 74
     1
 91
        4
 64
     7
 65
   257
 75
     1
175
     1
 42
1.0
 92
        8
 66
     7
 43
1.0
 76
     1
 77
     6
 78
     2
 67
     7
 79
     5
170
     0
171
     0
290
     0
174
     0
 93
        1
 44
-50.0
173
     0
291
     1
 45
0.0
1001
ACAD
1000
AcDbSavedByObjectVersion
1070
     0
  0
VISUALSTYLE
  5
8051
102
{ACAD_XDICTIONARY
360
8094
102
}
102
{ACAD_REACTORS
330
5F23
102
}
330
5F23
100
AcDbVisualStyle
  2
EdgeColorOff
 70
    22
 71
     2
 72
     2
 73
     0
 90
        0
 40
-0.6
 41
-30.0
 62
     5
 63
     7
421
 16777215
 74
     1
 91
        4
 64
     7
 65
   257
 75
     1
175
     1
 42
1.0
 92
        8
 66
     7
 43
1.0
 76
     1
 77
     6
 78
     2
 67
     7
 79
     5
170
     0
171
     0
290
     0
174
     0
 93
        1
 44
0.0
173
     0
291
     1
 45
0.0
1001
ACAD
1000
AcDbSavedByObjectVersion
1070
     0
  0
VISUALSTYLE
  5
5F32
102
{ACAD_XDICTIONARY
360
807E
102
}
102
{ACAD_REACTORS
330
5F23
102
}
330
5F23
100
AcDbVisualStyle
  2

 70
    15
 71
     2
 72
     2
 73
     0
 90
        0
 40
-0.6
 41
-30.0
 62
     5
 63
     7
 74
     1
 91
        4
 64
     7
 65
   257
 75
     1
175
     1
 42
1.0
 92
        8
 66
     7
 43
1.0
 76
     1
 77
     6
 78
     2
 67
     7
 79
     5
170
     0
171
     0
290
     0
174
     0
 93
        1
 44
0.0
173
     0
291
     1
 45
0.0
1001
ACAD
1000
AcDbSavedByObjectVersion
1070
     0
  0
VISUALSTYLE
  5
5F24
102
{ACAD_XDICTIONARY
360
8062
102
}
102
{ACAD_REACTORS
330
5F23
102
}
330
5F23
100
AcDbVisualStyle
  2

 70
     0
 71
     2
 72
     1
 73
     1
 90
        2
 40
-0.6
 41
30.0
 62
     5
 63
     7
 74
     0
 91
        4
 64
     7
 65
   257
 75
     1
175
     1
 42
1.0
 92
        8
 66
     7
 43
1.0
 76
     1
 77
     6
 78
     2
 67
     7
 79
     5
170
     0
171
     0
290
     0
174
     0
 93
       13
 44
0.0
173
     0
291
     1
 45
0.0
1001
ACAD
1000
AcDbSavedByObjectVersion
1070
     0
  0
VISUALSTYLE
  5
5F25
102
{ACAD_XDICTIONARY
360
8064
102
}
102
{ACAD_REACTORS
330
5F23
102
}
330
5F23
100
AcDbVisualStyle
  2

 70
     1
 71
     2
 72
     1
 73
     1
 90
        2
 40
-0.6
 41
30.0
 62
     5
 63
     7
 74
     1
 91
        4
 64
     7
 65
   257
 75
     1
175
     1
 42
1.0
 92
        0
 66
   257
 43
1.0
 76
     1
 77
     6
 78
     2
 67
     7
 79
     5
170
     0
171
     0
290
     0
174
     0
 93
       13
 44
0.0
173
     0
291
     1
 45
0.0
1001
ACAD
1000
AcDbSavedByObjectVersion
1070
     0
  0
VISUALSTYLE
  5
5F26
102
{ACAD_XDICTIONARY
360
8066
102
}
102
{ACAD_REACTORS
330
5F23
102
}
330
5F23
100
AcDbVisualStyle
  2

 70
     2
 71
     2
 72
     2
 73
     1
 90
        2
 40
-0.6
 41
30.0
 62
     5
 63
     7
 74
     0
 91
        4
 64
     7
 65
   257
 75
     1
175
     1
 42
1.0
 92
        0
 66
     7
 43
1.0
 76
     1
 77
     6
 78
     2
 67
     7
 79
     5
170
     0
171
     0
290
     0
174
     0
 93
       13
 44
0.0
173
     0
291
     1
 45
0.0
1001
ACAD
1000
AcDbSavedByObjectVersion
1070
     0
  0
VISUALSTYLE
  5
5F27
102
{ACAD_XDICTIONARY
360
8068
102
}
102
{ACAD_REACTORS
330
5F23
102
}
330
5F23
100
AcDbVisualStyle
  2

 70
     3
 71
     2
 72
     2
 73
     1
 90
        2
 40
-0.6
 41
30.0
 62
     5
 63
     7
 74
     1
 91
        4
 64
     7
 65
   257
 75
     1
175
     1
 42
1.0
 92
        0
 66
   257
 43
1.0
 76
     1
 77
     6
 78
     2
 67
     7
 79
     5
170
     0
171
     0
290
     0
174
     0
 93
       13
 44
0.0
173
     0
291
     1
 45
0.0
1001
ACAD
1000
AcDbSavedByObjectVersion
1070
     0
  0
VISUALSTYLE
  5
8049
102
{ACAD_XDICTIONARY
360
8084
102
}
102
{ACAD_REACTORS
330
5F23
102
}
330
5F23
100
AcDbVisualStyle
  2
Hidden
 70
     6
 71
     1
 72
     2
 73
     2
 90
        0
 40
-0.6
 41
-30.0
 62
     5
 63
     7
421
 16777215
 74
     2
 91
        2
 64
     7
 65
   257
 75
     2
175
     1
 42
40.0
 92
        0
 66
   257
 43
1.0
 76
     1
 77
     6
 78
     2
 67
     7
 79
     3
170
     0
171
     0
290
     0
174
     0
 93
        1
 44
0.0
173
     0
291
     0
 45
0.0
1001
ACAD
1000
AcDbSavedByObjectVersion
1070
     0
  0
VISUALSTYLE
  5
804F
102
{ACAD_XDICTIONARY
360
8090
102
}
102
{ACAD_REACTORS
330
5F23
102
}
330
5F23
100
AcDbVisualStyle
  2
JitterOff
 70
    20
 71
     2
 72
     2
 73
     0
 90
        0
 40
-0.6
 41
-30.0
 62
     5
 63
     7
421
 16777215
 74
     1
 91
        4
 64
     7
 65
   257
 75
     1
175
     1
 42
1.0
 92
       10
 66
     7
 43
1.0
 76
     1
 77
     6
 78
     2
 67
     7
 79
     5
170
     0
171
     0
290
     0
174
     0
 93
        1
 44
0.0
173
     0
291
     1
 45
0.0
1001
ACAD
1000
AcDbSavedByObjectVersion
1070
     0
  0
VISUALSTYLE
  5
5F31
102
{ACAD_XDICTIONARY
360
807C
102
}
102
{ACAD_REACTORS
330
5F23
102
}
330
5F23
100
AcDbVisualStyle
  2

 70
    14
 71
     2
 72
     2
 73
     0
 90
        0
 40
-0.6
 41
-30.0
 62
     5
 63
     7
 74
     1
 91
        4
 64
     7
 65
   257
 75
     7
175
     7
 42
1.0
 92
        8
 66
     7
 43
1.0
 76
     1
 77
     6
 78
     2
 67
     7
 79
     5
170
     0
171
     0
290
     0
174
     0
 93
        1
 44
0.0
173
     0
291
     1
 45
0.0
1001
ACAD
1000
AcDbSavedByObjectVersion
1070
     0
  0
VISUALSTYLE
  5
8050
102
{ACAD_XDICTIONARY
360
8092
102
}
102
{ACAD_REACTORS
330
5F23
102
}
330
5F23
100
AcDbVisualStyle
  2
OverhangOff
 70
    21
 71
     2
 72
     2
 73
     0
 90
        0
 40
-0.6
 41
-30.0
 62
     5
 63
     7
421
 16777215
 74
     1
 91
        4
 64
     7
 65
   257
 75
     1
175
     1
 42
1.0
 92
        9
 66
     7
 43
1.0
 76
     1
 77
     6
 78
     2
 67
     7
 79
     5
170
     0
171
     0
290
     0
174
     0
 93
        1
 44
0.0
173
     0
291
     1
 45
0.0
1001
ACAD
1000
AcDbSavedByObjectVersion
1070
     0
  0
VISUALSTYLE
  5
5F2D
102
{ACAD_XDICTIONARY
360
8074
102
}
102
{ACAD_REACTORS
330
5F23
102
}
330
5F23
100
AcDbVisualStyle
  2

 70
     8
 71
     2
 72
     2
 73
     0
 90
        0
 40
-0.6
 41
-30.0
 62
     5
 63
     7
 74
     1
 91
        0
 64
     7
 65
   257
 75
     1
175
     1
 42
1.0
 92
        8
 66
     8
 43
1.0
 76
     1
 77
     6
 78
     2
 67
     7
 79
     5
170
     0
171
     0
290
     0
174
     0
 93
       13
 44
0.0
173
     0
291
     0
 45
0.0
1001
ACAD
1000
AcDbSavedByObjectVersion
1070
     0
  0
VISUALSTYLE
  5
804E
102
{ACAD_XDICTIONARY
360
808E
102
}
102
{ACAD_REACTORS
330
5F23
102
}
330
5F23
100
AcDbVisualStyle
  2
Shaded
 70
    27
 71
     2
 72
     2
 73
     1
 90
        2
 40
-0.6
 41
30.0
 62
     5
 63
     7
421
 16777215
 74
     0
 91
        4
 64
     7
 65
   257
 75
     1
175
     1
 42
1.0
 92
        8
 66
   257
 43
1.0
 76
     1
 77
     6
 78
     2
 67
     8
425
  7895160
 79
     3
170
     0
171
     0
290
     0
174
     0
 93
        5
 44
0.0
173
     0
291
     0
 45
0.0
1001
ACAD
1000
AcDbSavedByObjectVersion
1070
     0
  0
VISUALSTYLE
  5
804D
102
{ACAD_XDICTIONARY
360
808C
102
}
102
{ACAD_REACTORS
330
5F23
102
}
330
5F23
100
AcDbVisualStyle
  2
Shaded with edges
 70
    26
 71
     2
 72
     2
 73
     1
 90
        2
 40
-0.6
 41
30.0
 62
     5
 63
     7
421
 16777215
 74
     1
 91
       10
 64
     7
 65
   257
 75
     2
175
     1
 42
1.0
 92
        8
 66
   257
 43
1.0
 76
     1
 77
     6
 78
     2
 67
     7
 79
     3
170
     0
171
     0
290
     0
174
     0
 93
        5
 44
0.0
173
     0
291
     0
 45
0.0
1001
ACAD
1000
AcDbSavedByObjectVersion
1070
     0
  0
VISUALSTYLE
  5
804A
102
{ACAD_XDICTIONARY
360
8086
102
}
102
{ACAD_REACTORS
330
5F23
102
}
330
5F23
100
AcDbVisualStyle
  2
Shades of Gray
 70
    23
 71
     2
 72
     2
 73
     3
 90
        0
 40
-0.6
 41
-30.0
 62
     5
 63
     7
421
 16777215
 74
     2
 91
        2
 64
     7
 65
     7
 75
     1
175
     1
 42
40.0
 92
        8
 66
     7
 43
1.0
 76
     1
 77
     6
 78
     2
 67
     7
 79
     3
170
     0
171
     0
290
     0
174
     0
 93
        1
 44
0.0
173
     0
291
     0
 45
0.0
1001
ACAD
1000
AcDbSavedByObjectVersion
1070
     0
  0
VISUALSTYLE
  5
804B
102
{ACAD_XDICTIONARY
360
8088
102
}
102
{ACAD_REACTORS
330
5F23
102
}
330
5F23
100
AcDbVisualStyle
  2
Sketchy
 70
    24
 71
     1
 72
     2
 73
     2
 90
        0
 40
-0.6
 41
-30.0
 62
     5
 63
     7
421
 16777215
 74
     2
 91
        2
 64
     7
 65
     7
 75
     1
175
     1
 42
40.0
 92
       11
 66
     7
 43
1.0
 76
     1
 77
     6
 78
     2
 67
     7
 79
     6
170
     0
171
     0
290
     0
174
     0
 93
        1
 44
0.0
173
     0
291
     0
 45
0.0
1001
ACAD
1000
AcDbSavedByObjectVersion
1070
     0
  0
VISUALSTYLE
  5
5F30
102
{ACAD_XDICTIONARY
360
807A
102
}
102
{ACAD_REACTORS
330
5F23
102
}
330
5F23
100
AcDbVisualStyle
  2

 70
    13
 71
     2
 72
     2
 73
     0
 90
        0
 40
-0.6
 41
-30.0
 62
     5
 63
     7
 74
     1
 91
        4
 64
     7
 65
   257
 75
     1
175
     1
 42
1.0
 92
       12
 66
     7
 43
1.0
 76
     1
 77
     6
 78
     2
 67
     7
 79
     5
170
     0
171
     0
290
     0
174
     0
 93
        1
 44
0.0
173
     0
291
     1
 45
0.0
1001
ACAD
1000
AcDbSavedByObjectVersion
1070
     0
  0
VISUALSTYLE
  5
8048
102
{ACAD_XDICTIONARY
360
8082
102
}
102
{ACAD_REACTORS
330
5F23
102
}
330
5F23
100
AcDbVisualStyle
  2
Wireframe
 70
     5
 71
     0
 72
     2
 73
     0
 90
        0
 40
-0.6
 41
-30.0
 62
     5
 63
     7
421
 16777215
 74
     1
 91
        4
 64
     7
 65
   257
 75
     1
175
     1
 42
1.0
 92
        0
 66
   257
 43
1.0
 76
     1
 77
     6
 78
     2
 67
     7
 79
     3
170
     0
171
     0
290
     0
174
     0
 93
        1
 44
0.0
173
     0
291
     0
 45
0.0
1001
ACAD
1000
AcDbSavedByObjectVersion
1070
     0
  0
VISUALSTYLE
  5
804C
102
{ACAD_XDICTIONARY
360
808A
102
}
102
{ACAD_REACTORS
330
5F23
102
}
330
5F23
100
AcDbVisualStyle
  2
X-Ray
 70
    25
 71
     2
 72
     2
 73
     1
 90
        1
 40
0.5
 41
-30.0
 62
     5
 63
     7
421
 16777215
 74
     1
 91
        0
 64
     7
 65
   257
 75
     1
175
     1
 42
1.0
 92
        8
 66
     7
 43
1.0
 76
     1
 77
     6
 78
     2
 67
     7
 79
     3
170
     0
171
     0
290
     0
174
     0
 93
       13
 44
0.0
173
     0
291
     0
 45
0.0
1001
ACAD
1000
AcDbSavedByObjectVersion
1070
     0
  0
DICTIONARYVAR
  5
6105
102
{ACAD_REACTORS
330
6102
102
}
330
6102
100
DictionaryVariables
280
     0
  1
1:1
  0
DICTIONARYVAR
  5
6104
102
{ACAD_REACTORS
330
6102
102
}
330
6102
100
DictionaryVariables
280
     0
  1
STANDARD
  0
DICTIONARYVAR
  5
6103
102
{ACAD_REACTORS
330
6102
102
}
330
6102
100
DictionaryVariables
280
     0
  1
STANDARD
  0
DICTIONARYVAR
  5
8059
102
{ACAD_REACTORS
330
6102
102
}
330
6102
100
DictionaryVariables
280
     0
  1
Imperial24
  0
DICTIONARYVAR
  5
805A
102
{ACAD_REACTORS
330
6102
102
}
330
6102
100
DictionaryVariables
280
     0
  1
Imperial24
  0
DICTIONARYVAR
  5
6108
102
{ACAD_REACTORS
330
6102
102
}
330
6102
100
DictionaryVariables
280
     0
  1
1
  0
DICTIONARYVAR
  5
6107
102
{ACAD_REACTORS
330
6102
102
}
330
6102
100
DictionaryVariables
280
     0
  1
0
  0
DICTIONARYVAR
  5
805D
102
{ACAD_REACTORS
330
6102
102
}
330
6102
100
DictionaryVariables
280
     0
  1
1
  0
DICTIONARYVAR
  5
805E
102
{ACAD_REACTORS
330
6102
102
}
330
6102
100
DictionaryVariables
280
     0
  1
15
  0
DICTIONARYVAR
  5
805C
102
{ACAD_REACTORS
330
6102
102
}
330
6102
100
DictionaryVariables
280
     0
  1
0
  0
DICTIONARYVAR
  5
805B
102
{ACAD_REACTORS
330
6102
102
}
330
6102
100
DictionaryVariables
280
     0
  1
0
  0
DICTIONARYVAR
  5
6106
102
{ACAD_REACTORS
330
6102
102
}
330
6102
100
DictionaryVariables
280
     0
  1
127
  0
VLO-VL
  5
60F3
102
{ACAD_REACTORS
330
60F2
102
}
330
60F2
100
vlo_VL
 90
   -64512
 91
       12
 92
        1
 40
2.5
300
(&VLO-R . 0)
  0
DICTIONARY
  5
8098
330
8055
100
AcDbDictionary
280
     1
281
     1
  3
ACAD_XREC_ROUNDTRIP
360
8099
  0
DICTIONARY
  5
5F14
330
5F13
100
AcDbDictionary
280
     1
281
     1
  3
ACAD_XREC_ROUNDTRIP
360
7F34
  3
BUMPTILE
360
5F16
  3
DIFFUSETILE
360
5F15
  3
OPACITYTILE
360
5F19
  3
REFLECTIONTILE
360
5F18
  3
REFRACTIONTILE
360
5F1A
  3
SPECULARTILE
360
5F17
  0
DICTIONARY
  5
5F0C
330
5F0B
100
AcDbDictionary
280
     1
281
     1
  3
ACAD_XREC_ROUNDTRIP
360
7F33
  3
BUMPTILE
360
5F0E
  3
DIFFUSETILE
360
5F0D
  3
OPACITYTILE
360
5F11
  3
REFLECTIONTILE
360
5F10
  3
REFRACTIONTILE
360
5F12
  3
SPECULARTILE
360
5F0F
  0
DICTIONARY
  5
5F1C
330
5F1B
100
AcDbDictionary
280
     1
281
     1
  3
ACAD_XREC_ROUNDTRIP
360
7F35
  3
BUMPTILE
360
5F1E
  3
DIFFUSETILE
360
5F1D
  3
OPACITYTILE
360
5F21
  3
REFLECTIONTILE
360
5F20
  3
REFRACTIONTILE
360
5F22
  3
SPECULARTILE
360
5F1F
  0
DICTIONARY
  5
8096
330
8053
100
AcDbDictionary
280
     1
281
     1
  3
ACAD_XREC_ROUNDTRIP
360
8097
  0
DICTIONARY
  5
7F2F
330
5F66
100
AcDbDictionary
280
     1
281
     1
  3
ACAD_ROUNDTRIP_2008_TABLESTYLE_CELLSTYLEMAP
360
8060
  0
DICTIONARY
  5
806C
330
5F29
100
AcDbDictionary
280
     1
281
     1
  3
ACAD_XREC_ROUNDTRIP
360
806D
  0
DICTIONARY
  5
8070
330
5F2B
100
AcDbDictionary
280
     1
281
     1
  3
ACAD_XREC_ROUNDTRIP
360
8071
  0
DICTIONARY
  5
806E
330
5F2A
100
AcDbDictionary
280
     1
281
     1
  3
ACAD_XREC_ROUNDTRIP
360
806F
  0
DICTIONARY
  5
806A
330
5F28
100
AcDbDictionary
280
     1
281
     1
  3
ACAD_XREC_ROUNDTRIP
360
806B
  0
DICTIONARY
  5
8078
330
5F2F
100
AcDbDictionary
280
     1
281
     1
  3
ACAD_XREC_ROUNDTRIP
360
8079
  0
DICTIONARY
  5
8080
330
5F33
100
AcDbDictionary
280
     1
281
     1
  3
ACAD_XREC_ROUNDTRIP
360
8081
  0
DICTIONARY
  5
8072
330
5F2C
100
AcDbDictionary
280
     1
281
     1
  3
ACAD_XREC_ROUNDTRIP
360
8073
  0
DICTIONARY
  5
8076
330
5F2E
100
AcDbDictionary
280
     1
281
     1
  3
ACAD_XREC_ROUNDTRIP
360
8077
  0
DICTIONARY
  5
8094
330
8051
100
AcDbDictionary
280
     1
281
     1
  3
ACAD_XREC_ROUNDTRIP
360
8095
  0
DICTIONARY
  5
807E
330
5F32
100
AcDbDictionary
280
     1
281
     1
  3
ACAD_XREC_ROUNDTRIP
360
807F
  0
DICTIONARY
  5
8062
330
5F24
100
AcDbDictionary
280
     1
281
     1
  3
ACAD_XREC_ROUNDTRIP
360
8063
  0
DICTIONARY
  5
8064
330
5F25
100
AcDbDictionary
280
     1
281
     1
  3
ACAD_XREC_ROUNDTRIP
360
8065
  0
DICTIONARY
  5
8066
330
5F26
100
AcDbDictionary
280
     1
281
     1
  3
ACAD_XREC_ROUNDTRIP
360
8067
  0
DICTIONARY
  5
8068
330
5F27
100
AcDbDictionary
280
     1
281
     1
  3
ACAD_XREC_ROUNDTRIP
360
8069
  0
DICTIONARY
  5
8084
330
8049
100
AcDbDictionary
280
     1
281
     1
  3
ACAD_XREC_ROUNDTRIP
360
8085
  0
DICTIONARY
  5
8090
330
804F
100
AcDbDictionary
280
     1
281
     1
  3
ACAD_XREC_ROUNDTRIP
360
8091
  0
DICTIONARY
  5
807C
330
5F31
100
AcDbDictionary
280
     1
281
     1
  3
ACAD_XREC_ROUNDTRIP
360
807D
  0
DICTIONARY
  5
8092
330
8050
100
AcDbDictionary
280
     1
281
     1
  3
ACAD_XREC_ROUNDTRIP
360
8093
  0
DICTIONARY
  5
8074
330
5F2D
100
AcDbDictionary
280
     1
281
     1
  3
ACAD_XREC_ROUNDTRIP
360
8075
  0
DICTIONARY
  5
808E
330
804E
100
AcDbDictionary
280
     1
281
     1
  3
ACAD_XREC_ROUNDTRIP
360
808F
  0
DICTIONARY
  5
808C
330
804D
100
AcDbDictionary
280
     1
281
     1
  3
ACAD_XREC_ROUNDTRIP
360
808D
  0
DICTIONARY
  5
8086
330
804A
100
AcDbDictionary
280
     1
281
     1
  3
ACAD_XREC_ROUNDTRIP
360
8087
  0
DICTIONARY
  5
8088
330
804B
100
AcDbDictionary
280
     1
281
     1
  3
ACAD_XREC_ROUNDTRIP
360
8089
  0
DICTIONARY
  5
807A
330
5F30
100
AcDbDictionary
280
     1
281
     1
  3
ACAD_XREC_ROUNDTRIP
360
807B
  0
DICTIONARY
  5
8082
330
8048
100
AcDbDictionary
280
     1
281
     1
  3
ACAD_XREC_ROUNDTRIP
360
8083
  0
DICTIONARY
  5
808A
330
804C
100
AcDbDictionary
280
     1
281
     1
  3
ACAD_XREC_ROUNDTRIP
360
808B
  0
XRECORD
  5
8099
102
{ACAD_REACTORS
330
8098
102
}
330
8098
100
AcDbXrecord
280
     1
102
DISPLAYNAME
  1
Imperial24
102
FLAGS
 90
        0
  0
XRECORD
  5
7F34
102
{ACAD_REACTORS
330
5F14
102
}
330
5F14
100
AcDbXrecord
280
     1
102
MATERIAL
148
0.0
149
0.0
149
0.0
 93
        0
 94
       63
282
     0
 72
     0
 77
     0
171
     0
175
     0
179
     0
273
     0
  0
XRECORD
  5
5F16
102
{ACAD_REACTORS
330
5F14
102
}
330
5F14
100
AcDbXrecord
280
     1
270
     1
271
     1
  0
XRECORD
  5
5F15
102
{ACAD_REACTORS
330
5F14
102
}
330
5F14
100
AcDbXrecord
280
     1
270
     1
271
     1
  0
XRECORD
  5
5F19
102
{ACAD_REACTORS
330
5F14
102
}
330
5F14
100
AcDbXrecord
280
     1
270
     1
271
     1
  0
XRECORD
  5
5F18
102
{ACAD_REACTORS
330
5F14
102
}
330
5F14
100
AcDbXrecord
280
     1
270
     1
271
     1
  0
XRECORD
  5
5F1A
102
{ACAD_REACTORS
330
5F14
102
}
330
5F14
100
AcDbXrecord
280
     1
270
     1
271
     1
  0
XRECORD
  5
5F17
102
{ACAD_REACTORS
330
5F14
102
}
330
5F14
100
AcDbXrecord
280
     1
270
     1
271
     1
  0
XRECORD
  5
7F33
102
{ACAD_REACTORS
330
5F0C
102
}
330
5F0C
100
AcDbXrecord
280
     1
102
MATERIAL
148
0.0
149
0.0
149
0.0
 93
        0
 94
       63
282
     0
 72
     0
 77
     0
171
     0
175
     0
179
     0
273
     0
  0
XRECORD
  5
5F0E
102
{ACAD_REACTORS
330
5F0C
102
}
330
5F0C
100
AcDbXrecord
280
     1
270
     1
271
     1
  0
XRECORD
  5
5F0D
102
{ACAD_REACTORS
330
5F0C
102
}
330
5F0C
100
AcDbXrecord
280
     1
270
     1
271
     1
  0
XRECORD
  5
5F11
102
{ACAD_REACTORS
330
5F0C
102
}
330
5F0C
100
AcDbXrecord
280
     1
270
     1
271
     1
  0
XRECORD
  5
5F10
102
{ACAD_REACTORS
330
5F0C
102
}
330
5F0C
100
AcDbXrecord
280
     1
270
     1
271
     1
  0
XRECORD
  5
5F12
102
{ACAD_REACTORS
330
5F0C
102
}
330
5F0C
100
AcDbXrecord
280
     1
270
     1
271
     1
  0
XRECORD
  5
5F0F
102
{ACAD_REACTORS
330
5F0C
102
}
330
5F0C
100
AcDbXrecord
280
     1
270
     1
271
     1
  0
XRECORD
  5
7F35
102
{ACAD_REACTORS
330
5F1C
102
}
330
5F1C
100
AcDbXrecord
280
     1
102
MATERIAL
148
0.0
149
0.0
149
0.0
 93
        0
 94
       63
282
     0
 72
     0
 77
     0
171
     0
175
     0
179
     0
273
     0
  0
XRECORD
  5
5F1E
102
{ACAD_REACTORS
330
5F1C
102
}
330
5F1C
100
AcDbXrecord
280
     1
270
     1
271
     1
  0
XRECORD
  5
5F1D
102
{ACAD_REACTORS
330
5F1C
102
}
330
5F1C
100
AcDbXrecord
280
     1
270
     1
271
     1
  0
XRECORD
  5
5F21
102
{ACAD_REACTORS
330
5F1C
102
}
330
5F1C
100
AcDbXrecord
280
     1
270
     1
271
     1
  0
XRECORD
  5
5F20
102
{ACAD_REACTORS
330
5F1C
102
}
330
5F1C
100
AcDbXrecord
280
     1
270
     1
271
     1
  0
XRECORD
  5
5F22
102
{ACAD_REACTORS
330
5F1C
102
}
330
5F1C
100
AcDbXrecord
280
     1
270
     1
271
     1
  0
XRECORD
  5
5F1F
102
{ACAD_REACTORS
330
5F1C
102
}
330
5F1C
100
AcDbXrecord
280
     1
270
     1
271
     1
  0
XRECORD
  5
8097
102
{ACAD_REACTORS
330
8096
102
}
330
8096
100
AcDbXrecord
280
     1
102
DISPLAYNAME
  1
Imperial24
102
FLAGS
 90
        0
  0
CELLSTYLEMAP
  5
8060
102
{ACAD_REACTORS
330
7F2F
102
}
330
7F2F
100
AcDbCellStyleMap
 90
        3
300
CELLSTYLE
  1
TABLEFORMAT_BEGIN
 90
        5
170
     1
 91
        0
 92
    32768
 62
   257
 93
        1
300
CONTENTFORMAT
  1
CONTENTFORMAT_BEGIN
 90
        0
 91
        0
 92
      512
 93
        0
300

 40
0.0
140
1.0
 94
        5
 62
     0
340
5F57
144
0.25
309
CONTENTFORMAT_END
171
     1
301
MARGIN
  1
CELLMARGIN_BEGIN
 40
0.06
 40
0.06
 40
0.06
 40
0.06
 40
0.18
 40
0.18
309
CELLMARGIN_END
 94
        6
 95
        1
302
GRIDFORMAT
  1
GRIDFORMAT_BEGIN
 90
        0
 91
        1
 62
     0
 92
       -2
340
0
 93
        0
 40
0.045
309
GRIDFORMAT_END
 95
        2
302
GRIDFORMAT
  1
GRIDFORMAT_BEGIN
 90
        0
 91
        1
 62
     0
 92
       -2
340
0
 93
        0
 40
0.045
309
GRIDFORMAT_END
 95
        4
302
GRIDFORMAT
  1
GRIDFORMAT_BEGIN
 90
        0
 91
        1
 62
     0
 92
       -2
340
0
 93
        0
 40
0.045
309
GRIDFORMAT_END
 95
        8
302
GRIDFORMAT
  1
GRIDFORMAT_BEGIN
 90
        0
 91
        1
 62
     0
 92
       -2
340
0
 93
        0
 40
0.045
309
GRIDFORMAT_END
 95
       16
302
GRIDFORMAT
  1
GRIDFORMAT_BEGIN
 90
        0
 91
        1
 62
     0
 92
       -2
340
0
 93
        0
 40
0.045
309
GRIDFORMAT_END
 95
       32
302
GRIDFORMAT
  1
GRIDFORMAT_BEGIN
 90
        0
 91
        1
 62
     0
 92
       -2
340
0
 93
        0
 40
0.045
309
GRIDFORMAT_END
309
TABLEFORMAT_END
  1
CELLSTYLE_BEGIN
 90
        1
 91
        1
300
_TITLE
309
CELLSTYLE_END
300
CELLSTYLE
  1
TABLEFORMAT_BEGIN
 90
        5
170
     1
 91
        0
 92
        0
 62
   257
 93
        1
300
CONTENTFORMAT
  1
CONTENTFORMAT_BEGIN
 90
        0
 91
        0
 92
      512
 93
        0
300

 40
0.0
140
1.0
 94
        5
 62
     0
340
5F57
144
0.18
309
CONTENTFORMAT_END
171
     1
301
MARGIN
  1
CELLMARGIN_BEGIN
 40
0.06
 40
0.06
 40
0.06
 40
0.06
 40
0.18
 40
0.18
309
CELLMARGIN_END
 94
        6
 95
        1
302
GRIDFORMAT
  1
GRIDFORMAT_BEGIN
 90
        0
 91
        1
 62
     0
 92
       -2
340
0
 93
        0
 40
0.045
309
GRIDFORMAT_END
 95
        2
302
GRIDFORMAT
  1
GRIDFORMAT_BEGIN
 90
        0
 91
        1
 62
     0
 92
       -2
340
0
 93
        0
 40
0.045
309
GRIDFORMAT_END
 95
        4
302
GRIDFORMAT
  1
GRIDFORMAT_BEGIN
 90
        0
 91
        1
 62
     0
 92
       -2
340
0
 93
        0
 40
0.045
309
GRIDFORMAT_END
 95
        8
302
GRIDFORMAT
  1
GRIDFORMAT_BEGIN
 90
        0
 91
        1
 62
     0
 92
       -2
340
0
 93
        0
 40
0.045
309
GRIDFORMAT_END
 95
       16
302
GRIDFORMAT
  1
GRIDFORMAT_BEGIN
 90
        0
 91
        1
 62
     0
 92
       -2
340
0
 93
        0
 40
0.045
309
GRIDFORMAT_END
 95
       32
302
GRIDFORMAT
  1
GRIDFORMAT_BEGIN
 90
        0
 91
        1
 62
     0
 92
       -2
340
0
 93
        0
 40
0.045
309
GRIDFORMAT_END
309
TABLEFORMAT_END
  1
CELLSTYLE_BEGIN
 90
        2
 91
        1
300
_HEADER
309
CELLSTYLE_END
300
CELLSTYLE
  1
TABLEFORMAT_BEGIN
 90
        5
170
     1
 91
        0
 92
        0
 62
   257
 93
        1
300
CONTENTFORMAT
  1
CONTENTFORMAT_BEGIN
 90
        0
 91
        0
 92
      512
 93
        0
300

 40
0.0
140
1.0
 94
        2
 62
     0
340
5F57
144
0.18
309
CONTENTFORMAT_END
171
     1
301
MARGIN
  1
CELLMARGIN_BEGIN
 40
0.06
 40
0.06
 40
0.06
 40
0.06
 40
0.18
 40
0.18
309
CELLMARGIN_END
 94
        6
 95
        1
302
GRIDFORMAT
  1
GRIDFORMAT_BEGIN
 90
        0
 91
        1
 62
     0
 92
       -2
340
0
 93
        0
 40
0.045
309
GRIDFORMAT_END
 95
        2
302
GRIDFORMAT
  1
GRIDFORMAT_BEGIN
 90
        0
 91
        1
 62
     0
 92
       -2
340
0
 93
        0
 40
0.045
309
GRIDFORMAT_END
 95
        4
302
GRIDFORMAT
  1
GRIDFORMAT_BEGIN
 90
        0
 91
        1
 62
     0
 92
       -2
340
0
 93
        0
 40
0.045
309
GRIDFORMAT_END
 95
        8
302
GRIDFORMAT
  1
GRIDFORMAT_BEGIN
 90
        0
 91
        1
 62
     0
 92
       -2
340
0
 93
        0
 40
0.045
309
GRIDFORMAT_END
 95
       16
302
GRIDFORMAT
  1
GRIDFORMAT_BEGIN
 90
        0
 91
        1
 62
     0
 92
       -2
340
0
 93
        0
 40
0.045
309
GRIDFORMAT_END
 95
       32
302
GRIDFORMAT
  1
GRIDFORMAT_BEGIN
 90
        0
 91
        1
 62
     0
 92
       -2
340
0
 93
        0
 40
0.045
309
GRIDFORMAT_END
309
TABLEFORMAT_END
  1
CELLSTYLE_BEGIN
 90
        3
 91
        2
300
_DATA
309
CELLSTYLE_END
  0
XRECORD
  5
806D
102
{ACAD_REACTORS
330
806C
102
}
330
806C
100
AcDbXrecord
280
     1
102
RTVSPost2010Prop28
280
     1
102
RTVSPost2010PropOp28
 70
     1
102
RTVSPost2010Prop29
280
     1
102
RTVSPost2010PropOp29
 70
     1
102
RTVSPost2010Prop30
280
     0
102
RTVSPost2010PropOp30
 70
     1
102
RTVSPost2010Prop31
280
     0
102
RTVSPost2010PropOp31
 70
     1
102
RTVSPost2010Prop32
280
     0
102
RTVSPost2010PropOp32
 70
     1
102
RTVSPost2010Prop33
280
     0
102
RTVSPost2010PropOp33
 70
     1
102
RTVSPost2010Prop34
280
     0
102
RTVSPost2010PropOp34
 70
     1
102
RTVSPost2010Prop35
280
     0
102
RTVSPost2010PropOp35
 70
     1
102
RTVSPost2010Prop36
280
     0
102
RTVSPost2010PropOp36
 70
     1
102
RTVSPost2010Prop37
 90
       50
102
RTVSPost2010PropOp37
 70
     1
102
RTVSPost2010Prop38
140
0.0
102
RTVSPost2010PropOp38
 70
     1
102
RTVSPost2010Prop39
140
1.0
102
RTVSPost2010PropOp39
 70
     1
102
RTVSPost2010Prop40
 90
        0
102
RTVSPost2010PropOp40
 70
     1
102
RTVSPost2010Prop41ColorIndex
 90
       18
102
RTVSPost2010Prop41ColorRGB
 90
        0
102
RTVSPost2010PropOp41
 70
     1
102
RTVSPost2010Prop42
 90
       50
102
RTVSPost2010PropOp42
 70
     1
102
RTVSPost2010Prop43
 90
        3
102
RTVSPost2010PropOp43
 70
     1
102
RTVSPost2010Prop44ColorIndex
 90
        5
102
RTVSPost2010Prop44ColorRGB
 90
      255
102
RTVSPost2010PropOp44
 70
     1
102
RTVSPost2010Prop45
280
     0
102
RTVSPost2010PropOp45
 70
     1
102
RTVSPost2010Prop46
 90
       50
102
RTVSPost2010PropOp46
 70
     1
102
RTVSPost2010Prop47
 90
       50
102
RTVSPost2010PropOp47
 70
     1
102
RTVSPost2010Prop48
 90
       50
102
RTVSPost2010PropOp48
 70
     1
102
RTVSPost2010Prop49
280
     0
102
RTVSPost2010PropOp49
 70
     1
102
RTVSPost2010Prop50
 90
       50
102
RTVSPost2010PropOp50
 70
     1
102
RTVSPost2010Prop51ColorIndex
 90
      256
102
RTVSPost2010Prop51ColorRGB
 90
-16777216
102
RTVSPost2010PropOp51
 70
     0
102
RTVSPost2010Prop52
140
1.0
102
RTVSPost2010PropOp52
 70
     0
102
RTVSPost2010Prop53
 90
        2
102
RTVSPost2010PropOp53
 70
     1
102
RTVSPost2010Prop54
  1
strokes_ogs.tif
102
RTVSPost2010PropOp54
 70
     1
102
RTVSPost2010Prop55
280
     0
102
RTVSPost2010PropOp55
 70
     1
102
RTVSPost2010Prop56
140
1.0
102
RTVSPost2010PropOp56
 70
     1
102
RTVSPost2010Prop57
140
1.0
102
RTVSPost2010PropOp57
 70
     1
102
RTVSPropertyOp0
 70
     1
102
RTVSPropertyOp1
 70
     1
102
RTVSPropertyOp2
 70
     1
102
RTVSPropertyOp3
 70
     1
102
RTVSPropertyOp4
 70
     1
102
RTVSPropertyOp5
 70
     1
102
RTVSPropertyOp6
 70
     1
102
RTVSPropertyOp7
 70
     1
102
RTVSPropertyOp8
 70
     1
102
RTVSPropertyOp9
 70
     1
102
RTVSPropertyOp10
 70
     1
102
RTVSPropertyOp11
 70
     1
102
RTVSPropertyOp12
 70
     1
102
RTVSPropertyOp13
 70
     1
102
RTVSPropertyOp14
 70
     1
102
RTVSPropertyOp15
 70
     1
102
RTVSPropertyOp16
 70
     1
102
RTVSPropertyOp17
 70
     1
102
RTVSPropertyOp18
 70
     1
102
RTVSPropertyOp19
 70
     1
102
RTVSPropertyOp20
 70
     1
102
RTVSPropertyOp21
 70
     1
102
RTVSPropertyOp22
 70
     1
102
RTVSPropertyOp23
 70
     1
102
RTVSPropertyOp24
 70
     1
102
RTVSPropertyOp25
 70
     1
102
RTVSPropertyOp26
 70
     1
102
RTVSPropertyOp27
 70
     1
102
RTVSPropertyOp28
 70
     1
102
RTVSPropertyOp29
 70
     1
102
RTVSPropertyOp30
 70
     1
102
RTVSPropertyOp31
 70
     1
102
RTVSPropertyOp32
 70
     1
102
RTVSPropertyOp33
 70
     1
102
RTVSPropertyOp34
 70
     1
102
RTVSPropertyOp35
 70
     1
102
RTVSPropertyOp36
 70
     1
102
RTVSPropertyOp37
 70
     1
102
RTVSPropertyOp38
 70
     1
102
RTVSPropertyOp39
 70
     1
102
RTVSPropertyOp40
 70
     1
102
RTVSPropertyOp41
 70
     1
102
RTVSPropertyOp42
 70
     1
102
RTVSPropertyOp43
 70
     1
102
RTVSPropertyOp44
 70
     1
102
RTVSPropertyOp45
 70
     1
102
RTVSPropertyOp46
 70
     1
102
RTVSPropertyOp47
 70
     1
102
RTVSPropertyOp48
 70
     1
102
RTVSPropertyOp49
 70
     1
102
RTVSPropertyOp50
 70
     1
102
RTVSPropertyOp51
 70
     0
102
RTVSPropertyOp52
 70
     0
102
RTVSPropertyOp53
 70
     1
102
RTVSPropertyOp54
 70
     1
102
RTVSPropertyOp55
 70
     1
102
RTVSPropertyOp56
 70
     1
102
RTVSPropertyOp57
 70
     1
102
RTVSPropertyOp58
 70
     1
102
RTVSPropertyOp59
 70
     1
102
RTVSPropertyOp60
 70
     1
102
RTVSPropertyOp61
 70
     1
102
RTVSPropertyOp62
 70
     1
  0
XRECORD
  5
8071
102
{ACAD_REACTORS
330
8070
102
}
330
8070
100
AcDbXrecord
280
     1
102
RTVSPost2010Prop28
280
     0
102
RTVSPost2010PropOp28
 70
     1
102
RTVSPost2010Prop29
280
     1
102
RTVSPost2010PropOp29
 70
     1
102
RTVSPost2010Prop30
280
     1
102
RTVSPost2010PropOp30
 70
     1
102
RTVSPost2010Prop31
280
     0
102
RTVSPost2010PropOp31
 70
     1
102
RTVSPost2010Prop32
280
     0
102
RTVSPost2010PropOp32
 70
     1
102
RTVSPost2010Prop33
280
     0
102
RTVSPost2010PropOp33
 70
     1
102
RTVSPost2010Prop34
280
     0
102
RTVSPost2010PropOp34
 70
     1
102
RTVSPost2010Prop35
280
     0
102
RTVSPost2010PropOp35
 70
     1
102
RTVSPost2010Prop36
280
     0
102
RTVSPost2010PropOp36
 70
     1
102
RTVSPost2010Prop37
 90
       50
102
RTVSPost2010PropOp37
 70
     1
102
RTVSPost2010Prop38
140
0.0
102
RTVSPost2010PropOp38
 70
     1
102
RTVSPost2010Prop39
140
1.0
102
RTVSPost2010PropOp39
 70
     1
102
RTVSPost2010Prop40
 90
        0
102
RTVSPost2010PropOp40
 70
     1
102
RTVSPost2010Prop41ColorIndex
 90
       18
102
RTVSPost2010Prop41ColorRGB
 90
        0
102
RTVSPost2010PropOp41
 70
     1
102
RTVSPost2010Prop42
 90
       50
102
RTVSPost2010PropOp42
 70
     1
102
RTVSPost2010Prop43
 90
        3
102
RTVSPost2010PropOp43
 70
     1
102
RTVSPost2010Prop44ColorIndex
 90
        5
102
RTVSPost2010Prop44ColorRGB
 90
      255
102
RTVSPost2010PropOp44
 70
     1
102
RTVSPost2010Prop45
280
     0
102
RTVSPost2010PropOp45
 70
     1
102
RTVSPost2010Prop46
 90
       50
102
RTVSPost2010PropOp46
 70
     1
102
RTVSPost2010Prop47
 90
       50
102
RTVSPost2010PropOp47
 70
     1
102
RTVSPost2010Prop48
 90
       50
102
RTVSPost2010PropOp48
 70
     1
102
RTVSPost2010Prop49
280
     0
102
RTVSPost2010PropOp49
 70
     1
102
RTVSPost2010Prop50
 90
       50
102
RTVSPost2010PropOp50
 70
     1
102
RTVSPost2010Prop51ColorIndex
 90
      256
102
RTVSPost2010Prop51ColorRGB
 90
-16777216
102
RTVSPost2010PropOp51
 70
     0
102
RTVSPost2010Prop52
140
1.0
102
RTVSPost2010PropOp52
 70
     0
102
RTVSPost2010Prop53
 90
        2
102
RTVSPost2010PropOp53
 70
     1
102
RTVSPost2010Prop54
  1
strokes_ogs.tif
102
RTVSPost2010PropOp54
 70
     1
102
RTVSPost2010Prop55
280
     0
102
RTVSPost2010PropOp55
 70
     1
102
RTVSPost2010Prop56
140
1.0
102
RTVSPost2010PropOp56
 70
     1
102
RTVSPost2010Prop57
140
1.0
102
RTVSPost2010PropOp57
 70
     1
102
RTVSPropertyOp0
 70
     1
102
RTVSPropertyOp1
 70
     1
102
RTVSPropertyOp2
 70
     1
102
RTVSPropertyOp3
 70
     1
102
RTVSPropertyOp4
 70
     1
102
RTVSPropertyOp5
 70
     1
102
RTVSPropertyOp6
 70
     1
102
RTVSPropertyOp7
 70
     1
102
RTVSPropertyOp8
 70
     1
102
RTVSPropertyOp9
 70
     1
102
RTVSPropertyOp10
 70
     1
102
RTVSPropertyOp11
 70
     1
102
RTVSPropertyOp12
 70
     1
102
RTVSPropertyOp13
 70
     1
102
RTVSPropertyOp14
 70
     1
102
RTVSPropertyOp15
 70
     1
102
RTVSPropertyOp16
 70
     1
102
RTVSPropertyOp17
 70
     1
102
RTVSPropertyOp18
 70
     1
102
RTVSPropertyOp19
 70
     1
102
RTVSPropertyOp20
 70
     1
102
RTVSPropertyOp21
 70
     1
102
RTVSPropertyOp22
 70
     1
102
RTVSPropertyOp23
 70
     1
102
RTVSPropertyOp24
 70
     1
102
RTVSPropertyOp25
 70
     1
102
RTVSPropertyOp26
 70
     1
102
RTVSPropertyOp27
 70
     1
102
RTVSPropertyOp28
 70
     1
102
RTVSPropertyOp29
 70
     1
102
RTVSPropertyOp30
 70
     1
102
RTVSPropertyOp31
 70
     1
102
RTVSPropertyOp32
 70
     1
102
RTVSPropertyOp33
 70
     1
102
RTVSPropertyOp34
 70
     1
102
RTVSPropertyOp35
 70
     1
102
RTVSPropertyOp36
 70
     1
102
RTVSPropertyOp37
 70
     1
102
RTVSPropertyOp38
 70
     1
102
RTVSPropertyOp39
 70
     1
102
RTVSPropertyOp40
 70
     1
102
RTVSPropertyOp41
 70
     1
102
RTVSPropertyOp42
 70
     1
102
RTVSPropertyOp43
 70
     1
102
RTVSPropertyOp44
 70
     1
102
RTVSPropertyOp45
 70
     1
102
RTVSPropertyOp46
 70
     1
102
RTVSPropertyOp47
 70
     1
102
RTVSPropertyOp48
 70
     1
102
RTVSPropertyOp49
 70
     1
102
RTVSPropertyOp50
 70
     1
102
RTVSPropertyOp51
 70
     0
102
RTVSPropertyOp52
 70
     0
102
RTVSPropertyOp53
 70
     1
102
RTVSPropertyOp54
 70
     1
102
RTVSPropertyOp55
 70
     1
102
RTVSPropertyOp56
 70
     1
102
RTVSPropertyOp57
 70
     1
102
RTVSPropertyOp58
 70
     1
102
RTVSPropertyOp59
 70
     1
102
RTVSPropertyOp60
 70
     1
102
RTVSPropertyOp61
 70
     1
102
RTVSPropertyOp62
 70
     1
  0
XRECORD
  5
806F
102
{ACAD_REACTORS
330
806E
102
}
330
806E
100
AcDbXrecord
280
     1
102
RTVSPost2010Prop28
280
     0
102
RTVSPost2010PropOp28
 70
     1
102
RTVSPost2010Prop29
280
     1
102
RTVSPost2010PropOp29
 70
     1
102
RTVSPost2010Prop30
280
     1
102
RTVSPost2010PropOp30
 70
     1
102
RTVSPost2010Prop31
280
     0
102
RTVSPost2010PropOp31
 70
     1
102
RTVSPost2010Prop32
280
     0
102
RTVSPost2010PropOp32
 70
     1
102
RTVSPost2010Prop33
280
     0
102
RTVSPost2010PropOp33
 70
     1
102
RTVSPost2010Prop34
280
     0
102
RTVSPost2010PropOp34
 70
     1
102
RTVSPost2010Prop35
280
     0
102
RTVSPost2010PropOp35
 70
     1
102
RTVSPost2010Prop36
280
     0
102
RTVSPost2010PropOp36
 70
     1
102
RTVSPost2010Prop37
 90
       50
102
RTVSPost2010PropOp37
 70
     1
102
RTVSPost2010Prop38
140
0.0
102
RTVSPost2010PropOp38
 70
     1
102
RTVSPost2010Prop39
140
1.0
102
RTVSPost2010PropOp39
 70
     1
102
RTVSPost2010Prop40
 90
        0
102
RTVSPost2010PropOp40
 70
     1
102
RTVSPost2010Prop41ColorIndex
 90
       18
102
RTVSPost2010Prop41ColorRGB
 90
        0
102
RTVSPost2010PropOp41
 70
     1
102
RTVSPost2010Prop42
 90
       50
102
RTVSPost2010PropOp42
 70
     1
102
RTVSPost2010Prop43
 90
        3
102
RTVSPost2010PropOp43
 70
     1
102
RTVSPost2010Prop44ColorIndex
 90
        5
102
RTVSPost2010Prop44ColorRGB
 90
      255
102
RTVSPost2010PropOp44
 70
     1
102
RTVSPost2010Prop45
280
     0
102
RTVSPost2010PropOp45
 70
     1
102
RTVSPost2010Prop46
 90
       50
102
RTVSPost2010PropOp46
 70
     1
102
RTVSPost2010Prop47
 90
       50
102
RTVSPost2010PropOp47
 70
     1
102
RTVSPost2010Prop48
 90
       50
102
RTVSPost2010PropOp48
 70
     1
102
RTVSPost2010Prop49
280
     0
102
RTVSPost2010PropOp49
 70
     1
102
RTVSPost2010Prop50
 90
       50
102
RTVSPost2010PropOp50
 70
     1
102
RTVSPost2010Prop51ColorIndex
 90
      256
102
RTVSPost2010Prop51ColorRGB
 90
-16777216
102
RTVSPost2010PropOp51
 70
     0
102
RTVSPost2010Prop52
140
1.0
102
RTVSPost2010PropOp52
 70
     0
102
RTVSPost2010Prop53
 90
        2
102
RTVSPost2010PropOp53
 70
     1
102
RTVSPost2010Prop54
  1
strokes_ogs.tif
102
RTVSPost2010PropOp54
 70
     1
102
RTVSPost2010Prop55
280
     0
102
RTVSPost2010PropOp55
 70
     1
102
RTVSPost2010Prop56
140
1.0
102
RTVSPost2010PropOp56
 70
     1
102
RTVSPost2010Prop57
140
1.0
102
RTVSPost2010PropOp57
 70
     1
102
RTVSPropertyOp0
 70
     1
102
RTVSPropertyOp1
 70
     1
102
RTVSPropertyOp2
 70
     1
102
RTVSPropertyOp3
 70
     1
102
RTVSPropertyOp4
 70
     1
102
RTVSPropertyOp5
 70
     1
102
RTVSPropertyOp6
 70
     1
102
RTVSPropertyOp7
 70
     1
102
RTVSPropertyOp8
 70
     1
102
RTVSPropertyOp9
 70
     1
102
RTVSPropertyOp10
 70
     1
102
RTVSPropertyOp11
 70
     1
102
RTVSPropertyOp12
 70
     1
102
RTVSPropertyOp13
 70
     1
102
RTVSPropertyOp14
 70
     1
102
RTVSPropertyOp15
 70
     1
102
RTVSPropertyOp16
 70
     1
102
RTVSPropertyOp17
 70
     1
102
RTVSPropertyOp18
 70
     1
102
RTVSPropertyOp19
 70
     1
102
RTVSPropertyOp20
 70
     1
102
RTVSPropertyOp21
 70
     1
102
RTVSPropertyOp22
 70
     1
102
RTVSPropertyOp23
 70
     1
102
RTVSPropertyOp24
 70
     1
102
RTVSPropertyOp25
 70
     1
102
RTVSPropertyOp26
 70
     1
102
RTVSPropertyOp27
 70
     1
102
RTVSPropertyOp28
 70
     1
102
RTVSPropertyOp29
 70
     1
102
RTVSPropertyOp30
 70
     1
102
RTVSPropertyOp31
 70
     1
102
RTVSPropertyOp32
 70
     1
102
RTVSPropertyOp33
 70
     1
102
RTVSPropertyOp34
 70
     1
102
RTVSPropertyOp35
 70
     1
102
RTVSPropertyOp36
 70
     1
102
RTVSPropertyOp37
 70
     1
102
RTVSPropertyOp38
 70
     1
102
RTVSPropertyOp39
 70
     1
102
RTVSPropertyOp40
 70
     1
102
RTVSPropertyOp41
 70
     1
102
RTVSPropertyOp42
 70
     1
102
RTVSPropertyOp43
 70
     1
102
RTVSPropertyOp44
 70
     1
102
RTVSPropertyOp45
 70
     1
102
RTVSPropertyOp46
 70
     1
102
RTVSPropertyOp47
 70
     1
102
RTVSPropertyOp48
 70
     1
102
RTVSPropertyOp49
 70
     1
102
RTVSPropertyOp50
 70
     1
102
RTVSPropertyOp51
 70
     0
102
RTVSPropertyOp52
 70
     0
102
RTVSPropertyOp53
 70
     1
102
RTVSPropertyOp54
 70
     1
102
RTVSPropertyOp55
 70
     1
102
RTVSPropertyOp56
 70
     1
102
RTVSPropertyOp57
 70
     1
102
RTVSPropertyOp58
 70
     1
102
RTVSPropertyOp59
 70
     1
102
RTVSPropertyOp60
 70
     1
102
RTVSPropertyOp61
 70
     1
102
RTVSPropertyOp62
 70
     1
  0
XRECORD
  5
806B
102
{ACAD_REACTORS
330
806A
102
}
330
806A
100
AcDbXrecord
280
     1
102
RTVSPost2010Prop28
280
     0
102
RTVSPost2010PropOp28
 70
     1
102
RTVSPost2010Prop29
280
     1
102
RTVSPost2010PropOp29
 70
     1
102
RTVSPost2010Prop30
280
     1
102
RTVSPost2010PropOp30
 70
     1
102
RTVSPost2010Prop31
280
     0
102
RTVSPost2010PropOp31
 70
     1
102
RTVSPost2010Prop32
280
     0
102
RTVSPost2010PropOp32
 70
     1
102
RTVSPost2010Prop33
280
     0
102
RTVSPost2010PropOp33
 70
     1
102
RTVSPost2010Prop34
280
     0
102
RTVSPost2010PropOp34
 70
     1
102
RTVSPost2010Prop35
280
     0
102
RTVSPost2010PropOp35
 70
     1
102
RTVSPost2010Prop36
280
     0
102
RTVSPost2010PropOp36
 70
     1
102
RTVSPost2010Prop37
 90
       50
102
RTVSPost2010PropOp37
 70
     1
102
RTVSPost2010Prop38
140
0.0
102
RTVSPost2010PropOp38
 70
     1
102
RTVSPost2010Prop39
140
1.0
102
RTVSPost2010PropOp39
 70
     1
102
RTVSPost2010Prop40
 90
        0
102
RTVSPost2010PropOp40
 70
     1
102
RTVSPost2010Prop41ColorIndex
 90
       18
102
RTVSPost2010Prop41ColorRGB
 90
        0
102
RTVSPost2010PropOp41
 70
     1
102
RTVSPost2010Prop42
 90
       50
102
RTVSPost2010PropOp42
 70
     1
102
RTVSPost2010Prop43
 90
        3
102
RTVSPost2010PropOp43
 70
     1
102
RTVSPost2010Prop44ColorIndex
 90
        5
102
RTVSPost2010Prop44ColorRGB
 90
      255
102
RTVSPost2010PropOp44
 70
     1
102
RTVSPost2010Prop45
280
     0
102
RTVSPost2010PropOp45
 70
     1
102
RTVSPost2010Prop46
 90
       50
102
RTVSPost2010PropOp46
 70
     1
102
RTVSPost2010Prop47
 90
       50
102
RTVSPost2010PropOp47
 70
     1
102
RTVSPost2010Prop48
 90
       50
102
RTVSPost2010PropOp48
 70
     1
102
RTVSPost2010Prop49
280
     0
102
RTVSPost2010PropOp49
 70
     1
102
RTVSPost2010Prop50
 90
       50
102
RTVSPost2010PropOp50
 70
     1
102
RTVSPost2010Prop51ColorIndex
 90
      256
102
RTVSPost2010Prop51ColorRGB
 90
-16777216
102
RTVSPost2010PropOp51
 70
     0
102
RTVSPost2010Prop52
140
1.0
102
RTVSPost2010PropOp52
 70
     0
102
RTVSPost2010Prop53
 90
        2
102
RTVSPost2010PropOp53
 70
     1
102
RTVSPost2010Prop54
  1
strokes_ogs.tif
102
RTVSPost2010PropOp54
 70
     1
102
RTVSPost2010Prop55
280
     0
102
RTVSPost2010PropOp55
 70
     1
102
RTVSPost2010Prop56
140
1.0
102
RTVSPost2010PropOp56
 70
     1
102
RTVSPost2010Prop57
140
1.0
102
RTVSPost2010PropOp57
 70
     1
102
RTVSPropertyOp0
 70
     1
102
RTVSPropertyOp1
 70
     1
102
RTVSPropertyOp2
 70
     1
102
RTVSPropertyOp3
 70
     1
102
RTVSPropertyOp4
 70
     1
102
RTVSPropertyOp5
 70
     1
102
RTVSPropertyOp6
 70
     1
102
RTVSPropertyOp7
 70
     1
102
RTVSPropertyOp8
 70
     1
102
RTVSPropertyOp9
 70
     1
102
RTVSPropertyOp10
 70
     1
102
RTVSPropertyOp11
 70
     1
102
RTVSPropertyOp12
 70
     1
102
RTVSPropertyOp13
 70
     1
102
RTVSPropertyOp14
 70
     1
102
RTVSPropertyOp15
 70
     1
102
RTVSPropertyOp16
 70
     1
102
RTVSPropertyOp17
 70
     1
102
RTVSPropertyOp18
 70
     1
102
RTVSPropertyOp19
 70
     1
102
RTVSPropertyOp20
 70
     1
102
RTVSPropertyOp21
 70
     1
102
RTVSPropertyOp22
 70
     1
102
RTVSPropertyOp23
 70
     1
102
RTVSPropertyOp24
 70
     1
102
RTVSPropertyOp25
 70
     1
102
RTVSPropertyOp26
 70
     1
102
RTVSPropertyOp27
 70
     1
102
RTVSPropertyOp28
 70
     1
102
RTVSPropertyOp29
 70
     1
102
RTVSPropertyOp30
 70
     1
102
RTVSPropertyOp31
 70
     1
102
RTVSPropertyOp32
 70
     1
102
RTVSPropertyOp33
 70
     1
102
RTVSPropertyOp34
 70
     1
102
RTVSPropertyOp35
 70
     1
102
RTVSPropertyOp36
 70
     1
102
RTVSPropertyOp37
 70
     1
102
RTVSPropertyOp38
 70
     1
102
RTVSPropertyOp39
 70
     1
102
RTVSPropertyOp40
 70
     1
102
RTVSPropertyOp41
 70
     1
102
RTVSPropertyOp42
 70
     1
102
RTVSPropertyOp43
 70
     1
102
RTVSPropertyOp44
 70
     1
102
RTVSPropertyOp45
 70
     1
102
RTVSPropertyOp46
 70
     1
102
RTVSPropertyOp47
 70
     1
102
RTVSPropertyOp48
 70
     1
102
RTVSPropertyOp49
 70
     1
102
RTVSPropertyOp50
 70
     1
102
RTVSPropertyOp51
 70
     0
102
RTVSPropertyOp52
 70
     0
102
RTVSPropertyOp53
 70
     1
102
RTVSPropertyOp54
 70
     1
102
RTVSPropertyOp55
 70
     1
102
RTVSPropertyOp56
 70
     1
102
RTVSPropertyOp57
 70
     1
102
RTVSPropertyOp58
 70
     1
102
RTVSPropertyOp59
 70
     1
102
RTVSPropertyOp60
 70
     1
102
RTVSPropertyOp61
 70
     1
102
RTVSPropertyOp62
 70
     1
  0
XRECORD
  5
8079
102
{ACAD_REACTORS
330
8078
102
}
330
8078
100
AcDbXrecord
280
     1
102
RTVSPost2010Prop28
280
     0
102
RTVSPost2010PropOp28
 70
     1
102
RTVSPost2010Prop29
280
     1
102
RTVSPost2010PropOp29
 70
     1
102
RTVSPost2010Prop30
280
     1
102
RTVSPost2010PropOp30
 70
     1
102
RTVSPost2010Prop31
280
     0
102
RTVSPost2010PropOp31
 70
     1
102
RTVSPost2010Prop32
280
     0
102
RTVSPost2010PropOp32
 70
     1
102
RTVSPost2010Prop33
280
     0
102
RTVSPost2010PropOp33
 70
     1
102
RTVSPost2010Prop34
280
     0
102
RTVSPost2010PropOp34
 70
     1
102
RTVSPost2010Prop35
280
     0
102
RTVSPost2010PropOp35
 70
     1
102
RTVSPost2010Prop36
280
     0
102
RTVSPost2010PropOp36
 70
     1
102
RTVSPost2010Prop37
 90
       50
102
RTVSPost2010PropOp37
 70
     1
102
RTVSPost2010Prop38
140
0.0
102
RTVSPost2010PropOp38
 70
     1
102
RTVSPost2010Prop39
140
1.0
102
RTVSPost2010PropOp39
 70
     1
102
RTVSPost2010Prop40
 90
        0
102
RTVSPost2010PropOp40
 70
     1
102
RTVSPost2010Prop41ColorIndex
 90
       18
102
RTVSPost2010Prop41ColorRGB
 90
        0
102
RTVSPost2010PropOp41
 70
     1
102
RTVSPost2010Prop42
 90
       50
102
RTVSPost2010PropOp42
 70
     1
102
RTVSPost2010Prop43
 90
        3
102
RTVSPost2010PropOp43
 70
     1
102
RTVSPost2010Prop44ColorIndex
 90
        5
102
RTVSPost2010Prop44ColorRGB
 90
      255
102
RTVSPost2010PropOp44
 70
     1
102
RTVSPost2010Prop45
280
     0
102
RTVSPost2010PropOp45
 70
     1
102
RTVSPost2010Prop46
 90
       50
102
RTVSPost2010PropOp46
 70
     1
102
RTVSPost2010Prop47
 90
       50
102
RTVSPost2010PropOp47
 70
     1
102
RTVSPost2010Prop48
 90
       50
102
RTVSPost2010PropOp48
 70
     1
102
RTVSPost2010Prop49
280
     0
102
RTVSPost2010PropOp49
 70
     1
102
RTVSPost2010Prop50
 90
       50
102
RTVSPost2010PropOp50
 70
     1
102
RTVSPost2010Prop51ColorIndex
 90
      256
102
RTVSPost2010Prop51ColorRGB
 90
-16777216
102
RTVSPost2010PropOp51
 70
     0
102
RTVSPost2010Prop52
140
1.0
102
RTVSPost2010PropOp52
 70
     0
102
RTVSPost2010Prop53
 90
        2
102
RTVSPost2010PropOp53
 70
     1
102
RTVSPost2010Prop54
  1
strokes_ogs.tif
102
RTVSPost2010PropOp54
 70
     1
102
RTVSPost2010Prop55
280
     0
102
RTVSPost2010PropOp55
 70
     1
102
RTVSPost2010Prop56
140
1.0
102
RTVSPost2010PropOp56
 70
     1
102
RTVSPost2010Prop57
140
1.0
102
RTVSPost2010PropOp57
 70
     1
102
RTVSPropertyOp0
 70
     1
102
RTVSPropertyOp1
 70
     1
102
RTVSPropertyOp2
 70
     1
102
RTVSPropertyOp3
 70
     1
102
RTVSPropertyOp4
 70
     1
102
RTVSPropertyOp5
 70
     1
102
RTVSPropertyOp6
 70
     1
102
RTVSPropertyOp7
 70
     1
102
RTVSPropertyOp8
 70
     1
102
RTVSPropertyOp9
 70
     1
102
RTVSPropertyOp10
 70
     1
102
RTVSPropertyOp11
 70
     1
102
RTVSPropertyOp12
 70
     1
102
RTVSPropertyOp13
 70
     1
102
RTVSPropertyOp14
 70
     1
102
RTVSPropertyOp15
 70
     1
102
RTVSPropertyOp16
 70
     1
102
RTVSPropertyOp17
 70
     1
102
RTVSPropertyOp18
 70
     1
102
RTVSPropertyOp19
 70
     1
102
RTVSPropertyOp20
 70
     1
102
RTVSPropertyOp21
 70
     1
102
RTVSPropertyOp22
 70
     1
102
RTVSPropertyOp23
 70
     1
102
RTVSPropertyOp24
 70
     1
102
RTVSPropertyOp25
 70
     1
102
RTVSPropertyOp26
 70
     1
102
RTVSPropertyOp27
 70
     1
102
RTVSPropertyOp28
 70
     1
102
RTVSPropertyOp29
 70
     1
102
RTVSPropertyOp30
 70
     1
102
RTVSPropertyOp31
 70
     1
102
RTVSPropertyOp32
 70
     1
102
RTVSPropertyOp33
 70
     1
102
RTVSPropertyOp34
 70
     1
102
RTVSPropertyOp35
 70
     1
102
RTVSPropertyOp36
 70
     1
102
RTVSPropertyOp37
 70
     1
102
RTVSPropertyOp38
 70
     1
102
RTVSPropertyOp39
 70
     1
102
RTVSPropertyOp40
 70
     1
102
RTVSPropertyOp41
 70
     1
102
RTVSPropertyOp42
 70
     1
102
RTVSPropertyOp43
 70
     1
102
RTVSPropertyOp44
 70
     1
102
RTVSPropertyOp45
 70
     1
102
RTVSPropertyOp46
 70
     1
102
RTVSPropertyOp47
 70
     1
102
RTVSPropertyOp48
 70
     1
102
RTVSPropertyOp49
 70
     1
102
RTVSPropertyOp50
 70
     1
102
RTVSPropertyOp51
 70
     0
102
RTVSPropertyOp52
 70
     0
102
RTVSPropertyOp53
 70
     1
102
RTVSPropertyOp54
 70
     1
102
RTVSPropertyOp55
 70
     1
102
RTVSPropertyOp56
 70
     1
102
RTVSPropertyOp57
 70
     1
102
RTVSPropertyOp58
 70
     1
102
RTVSPropertyOp59
 70
     1
102
RTVSPropertyOp60
 70
     1
102
RTVSPropertyOp61
 70
     1
102
RTVSPropertyOp62
 70
     1
  0
XRECORD
  5
8081
102
{ACAD_REACTORS
330
8080
102
}
330
8080
100
AcDbXrecord
280
     1
102
RTVSPost2010Prop28
280
     0
102
RTVSPost2010PropOp28
 70
     1
102
RTVSPost2010Prop29
280
     1
102
RTVSPost2010PropOp29
 70
     1
102
RTVSPost2010Prop30
280
     1
102
RTVSPost2010PropOp30
 70
     1
102
RTVSPost2010Prop31
280
     0
102
RTVSPost2010PropOp31
 70
     1
102
RTVSPost2010Prop32
280
     0
102
RTVSPost2010PropOp32
 70
     1
102
RTVSPost2010Prop33
280
     0
102
RTVSPost2010PropOp33
 70
     1
102
RTVSPost2010Prop34
280
     0
102
RTVSPost2010PropOp34
 70
     1
102
RTVSPost2010Prop35
280
     0
102
RTVSPost2010PropOp35
 70
     1
102
RTVSPost2010Prop36
280
     0
102
RTVSPost2010PropOp36
 70
     1
102
RTVSPost2010Prop37
 90
       50
102
RTVSPost2010PropOp37
 70
     1
102
RTVSPost2010Prop38
140
0.0
102
RTVSPost2010PropOp38
 70
     1
102
RTVSPost2010Prop39
140
1.0
102
RTVSPost2010PropOp39
 70
     1
102
RTVSPost2010Prop40
 90
        0
102
RTVSPost2010PropOp40
 70
     1
102
RTVSPost2010Prop41ColorIndex
 90
       18
102
RTVSPost2010Prop41ColorRGB
 90
        0
102
RTVSPost2010PropOp41
 70
     1
102
RTVSPost2010Prop42
 90
       50
102
RTVSPost2010PropOp42
 70
     1
102
RTVSPost2010Prop43
 90
        3
102
RTVSPost2010PropOp43
 70
     1
102
RTVSPost2010Prop44ColorIndex
 90
        5
102
RTVSPost2010Prop44ColorRGB
 90
      255
102
RTVSPost2010PropOp44
 70
     1
102
RTVSPost2010Prop45
280
     0
102
RTVSPost2010PropOp45
 70
     1
102
RTVSPost2010Prop46
 90
       50
102
RTVSPost2010PropOp46
 70
     1
102
RTVSPost2010Prop47
 90
       50
102
RTVSPost2010PropOp47
 70
     1
102
RTVSPost2010Prop48
 90
       50
102
RTVSPost2010PropOp48
 70
     1
102
RTVSPost2010Prop49
280
     0
102
RTVSPost2010PropOp49
 70
     1
102
RTVSPost2010Prop50
 90
       50
102
RTVSPost2010PropOp50
 70
     1
102
RTVSPost2010Prop51ColorIndex
 90
      256
102
RTVSPost2010Prop51ColorRGB
 90
-16777216
102
RTVSPost2010PropOp51
 70
     0
102
RTVSPost2010Prop52
140
1.0
102
RTVSPost2010PropOp52
 70
     0
102
RTVSPost2010Prop53
 90
        2
102
RTVSPost2010PropOp53
 70
     1
102
RTVSPost2010Prop54
  1
strokes_ogs.tif
102
RTVSPost2010PropOp54
 70
     1
102
RTVSPost2010Prop55
280
     0
102
RTVSPost2010PropOp55
 70
     1
102
RTVSPost2010Prop56
140
1.0
102
RTVSPost2010PropOp56
 70
     1
102
RTVSPost2010Prop57
140
1.0
102
RTVSPost2010PropOp57
 70
     1
102
RTVSPropertyOp0
 70
     1
102
RTVSPropertyOp1
 70
     1
102
RTVSPropertyOp2
 70
     1
102
RTVSPropertyOp3
 70
     1
102
RTVSPropertyOp4
 70
     1
102
RTVSPropertyOp5
 70
     1
102
RTVSPropertyOp6
 70
     1
102
RTVSPropertyOp7
 70
     1
102
RTVSPropertyOp8
 70
     1
102
RTVSPropertyOp9
 70
     1
102
RTVSPropertyOp10
 70
     1
102
RTVSPropertyOp11
 70
     1
102
RTVSPropertyOp12
 70
     1
102
RTVSPropertyOp13
 70
     1
102
RTVSPropertyOp14
 70
     1
102
RTVSPropertyOp15
 70
     1
102
RTVSPropertyOp16
 70
     1
102
RTVSPropertyOp17
 70
     1
102
RTVSPropertyOp18
 70
     1
102
RTVSPropertyOp19
 70
     1
102
RTVSPropertyOp20
 70
     1
102
RTVSPropertyOp21
 70
     1
102
RTVSPropertyOp22
 70
     1
102
RTVSPropertyOp23
 70
     1
102
RTVSPropertyOp24
 70
     1
102
RTVSPropertyOp25
 70
     1
102
RTVSPropertyOp26
 70
     1
102
RTVSPropertyOp27
 70
     1
102
RTVSPropertyOp28
 70
     1
102
RTVSPropertyOp29
 70
     1
102
RTVSPropertyOp30
 70
     1
102
RTVSPropertyOp31
 70
     1
102
RTVSPropertyOp32
 70
     1
102
RTVSPropertyOp33
 70
     1
102
RTVSPropertyOp34
 70
     1
102
RTVSPropertyOp35
 70
     1
102
RTVSPropertyOp36
 70
     1
102
RTVSPropertyOp37
 70
     1
102
RTVSPropertyOp38
 70
     1
102
RTVSPropertyOp39
 70
     1
102
RTVSPropertyOp40
 70
     1
102
RTVSPropertyOp41
 70
     1
102
RTVSPropertyOp42
 70
     1
102
RTVSPropertyOp43
 70
     1
102
RTVSPropertyOp44
 70
     1
102
RTVSPropertyOp45
 70
     1
102
RTVSPropertyOp46
 70
     1
102
RTVSPropertyOp47
 70
     1
102
RTVSPropertyOp48
 70
     1
102
RTVSPropertyOp49
 70
     1
102
RTVSPropertyOp50
 70
     1
102
RTVSPropertyOp51
 70
     0
102
RTVSPropertyOp52
 70
     0
102
RTVSPropertyOp53
 70
     1
102
RTVSPropertyOp54
 70
     1
102
RTVSPropertyOp55
 70
     1
102
RTVSPropertyOp56
 70
     1
102
RTVSPropertyOp57
 70
     1
102
RTVSPropertyOp58
 70
     1
102
RTVSPropertyOp59
 70
     1
102
RTVSPropertyOp60
 70
     1
102
RTVSPropertyOp61
 70
     1
102
RTVSPropertyOp62
 70
     1
  0
XRECORD
  5
8073
102
{ACAD_REACTORS
330
8072
102
}
330
8072
100
AcDbXrecord
280
     1
102
RTVSPost2010Prop28
280
     0
102
RTVSPost2010PropOp28
 70
     1
102
RTVSPost2010Prop29
280
     1
102
RTVSPost2010PropOp29
 70
     1
102
RTVSPost2010Prop30
280
     1
102
RTVSPost2010PropOp30
 70
     1
102
RTVSPost2010Prop31
280
     0
102
RTVSPost2010PropOp31
 70
     1
102
RTVSPost2010Prop32
280
     0
102
RTVSPost2010PropOp32
 70
     1
102
RTVSPost2010Prop33
280
     0
102
RTVSPost2010PropOp33
 70
     1
102
RTVSPost2010Prop34
280
     0
102
RTVSPost2010PropOp34
 70
     1
102
RTVSPost2010Prop35
280
     0
102
RTVSPost2010PropOp35
 70
     1
102
RTVSPost2010Prop36
280
     0
102
RTVSPost2010PropOp36
 70
     1
102
RTVSPost2010Prop37
 90
       50
102
RTVSPost2010PropOp37
 70
     1
102
RTVSPost2010Prop38
140
0.0
102
RTVSPost2010PropOp38
 70
     1
102
RTVSPost2010Prop39
140
1.0
102
RTVSPost2010PropOp39
 70
     1
102
RTVSPost2010Prop40
 90
        0
102
RTVSPost2010PropOp40
 70
     1
102
RTVSPost2010Prop41ColorIndex
 90
       18
102
RTVSPost2010Prop41ColorRGB
 90
        0
102
RTVSPost2010PropOp41
 70
     1
102
RTVSPost2010Prop42
 90
       50
102
RTVSPost2010PropOp42
 70
     1
102
RTVSPost2010Prop43
 90
        3
102
RTVSPost2010PropOp43
 70
     1
102
RTVSPost2010Prop44ColorIndex
 90
        5
102
RTVSPost2010Prop44ColorRGB
 90
      255
102
RTVSPost2010PropOp44
 70
     1
102
RTVSPost2010Prop45
280
     0
102
RTVSPost2010PropOp45
 70
     1
102
RTVSPost2010Prop46
 90
       50
102
RTVSPost2010PropOp46
 70
     1
102
RTVSPost2010Prop47
 90
       50
102
RTVSPost2010PropOp47
 70
     1
102
RTVSPost2010Prop48
 90
       50
102
RTVSPost2010PropOp48
 70
     1
102
RTVSPost2010Prop49
280
     0
102
RTVSPost2010PropOp49
 70
     1
102
RTVSPost2010Prop50
 90
       50
102
RTVSPost2010PropOp50
 70
     1
102
RTVSPost2010Prop51ColorIndex
 90
      256
102
RTVSPost2010Prop51ColorRGB
 90
-16777216
102
RTVSPost2010PropOp51
 70
     0
102
RTVSPost2010Prop52
140
1.0
102
RTVSPost2010PropOp52
 70
     0
102
RTVSPost2010Prop53
 90
        2
102
RTVSPost2010PropOp53
 70
     1
102
RTVSPost2010Prop54
  1
strokes_ogs.tif
102
RTVSPost2010PropOp54
 70
     1
102
RTVSPost2010Prop55
280
     0
102
RTVSPost2010PropOp55
 70
     1
102
RTVSPost2010Prop56
140
1.0
102
RTVSPost2010PropOp56
 70
     1
102
RTVSPost2010Prop57
140
1.0
102
RTVSPost2010PropOp57
 70
     1
102
RTVSPropertyOp0
 70
     1
102
RTVSPropertyOp1
 70
     1
102
RTVSPropertyOp2
 70
     1
102
RTVSPropertyOp3
 70
     1
102
RTVSPropertyOp4
 70
     1
102
RTVSPropertyOp5
 70
     1
102
RTVSPropertyOp6
 70
     1
102
RTVSPropertyOp7
 70
     1
102
RTVSPropertyOp8
 70
     1
102
RTVSPropertyOp9
 70
     1
102
RTVSPropertyOp10
 70
     1
102
RTVSPropertyOp11
 70
     1
102
RTVSPropertyOp12
 70
     1
102
RTVSPropertyOp13
 70
     1
102
RTVSPropertyOp14
 70
     1
102
RTVSPropertyOp15
 70
     1
102
RTVSPropertyOp16
 70
     1
102
RTVSPropertyOp17
 70
     1
102
RTVSPropertyOp18
 70
     1
102
RTVSPropertyOp19
 70
     1
102
RTVSPropertyOp20
 70
     1
102
RTVSPropertyOp21
 70
     1
102
RTVSPropertyOp22
 70
     1
102
RTVSPropertyOp23
 70
     1
102
RTVSPropertyOp24
 70
     1
102
RTVSPropertyOp25
 70
     1
102
RTVSPropertyOp26
 70
     1
102
RTVSPropertyOp27
 70
     1
102
RTVSPropertyOp28
 70
     1
102
RTVSPropertyOp29
 70
     1
102
RTVSPropertyOp30
 70
     1
102
RTVSPropertyOp31
 70
     1
102
RTVSPropertyOp32
 70
     1
102
RTVSPropertyOp33
 70
     1
102
RTVSPropertyOp34
 70
     1
102
RTVSPropertyOp35
 70
     1
102
RTVSPropertyOp36
 70
     1
102
RTVSPropertyOp37
 70
     1
102
RTVSPropertyOp38
 70
     1
102
RTVSPropertyOp39
 70
     1
102
RTVSPropertyOp40
 70
     1
102
RTVSPropertyOp41
 70
     1
102
RTVSPropertyOp42
 70
     1
102
RTVSPropertyOp43
 70
     1
102
RTVSPropertyOp44
 70
     1
102
RTVSPropertyOp45
 70
     1
102
RTVSPropertyOp46
 70
     1
102
RTVSPropertyOp47
 70
     1
102
RTVSPropertyOp48
 70
     1
102
RTVSPropertyOp49
 70
     1
102
RTVSPropertyOp50
 70
     1
102
RTVSPropertyOp51
 70
     0
102
RTVSPropertyOp52
 70
     0
102
RTVSPropertyOp53
 70
     1
102
RTVSPropertyOp54
 70
     1
102
RTVSPropertyOp55
 70
     1
102
RTVSPropertyOp56
 70
     1
102
RTVSPropertyOp57
 70
     1
102
RTVSPropertyOp58
 70
     1
102
RTVSPropertyOp59
 70
     1
102
RTVSPropertyOp60
 70
     1
102
RTVSPropertyOp61
 70
     1
102
RTVSPropertyOp62
 70
     1
  0
XRECORD
  5
8077
102
{ACAD_REACTORS
330
8076
102
}
330
8076
100
AcDbXrecord
280
     1
102
RTVSPost2010Prop28
280
     0
102
RTVSPost2010PropOp28
 70
     1
102
RTVSPost2010Prop29
280
     1
102
RTVSPost2010PropOp29
 70
     1
102
RTVSPost2010Prop30
280
     1
102
RTVSPost2010PropOp30
 70
     1
102
RTVSPost2010Prop31
280
     0
102
RTVSPost2010PropOp31
 70
     1
102
RTVSPost2010Prop32
280
     0
102
RTVSPost2010PropOp32
 70
     1
102
RTVSPost2010Prop33
280
     0
102
RTVSPost2010PropOp33
 70
     1
102
RTVSPost2010Prop34
280
     0
102
RTVSPost2010PropOp34
 70
     1
102
RTVSPost2010Prop35
280
     0
102
RTVSPost2010PropOp35
 70
     1
102
RTVSPost2010Prop36
280
     0
102
RTVSPost2010PropOp36
 70
     1
102
RTVSPost2010Prop37
 90
       50
102
RTVSPost2010PropOp37
 70
     1
102
RTVSPost2010Prop38
140
0.0
102
RTVSPost2010PropOp38
 70
     1
102
RTVSPost2010Prop39
140
1.0
102
RTVSPost2010PropOp39
 70
     1
102
RTVSPost2010Prop40
 90
        0
102
RTVSPost2010PropOp40
 70
     1
102
RTVSPost2010Prop41ColorIndex
 90
       18
102
RTVSPost2010Prop41ColorRGB
 90
        0
102
RTVSPost2010PropOp41
 70
     1
102
RTVSPost2010Prop42
 90
       50
102
RTVSPost2010PropOp42
 70
     1
102
RTVSPost2010Prop43
 90
        3
102
RTVSPost2010PropOp43
 70
     1
102
RTVSPost2010Prop44ColorIndex
 90
        5
102
RTVSPost2010Prop44ColorRGB
 90
      255
102
RTVSPost2010PropOp44
 70
     1
102
RTVSPost2010Prop45
280
     0
102
RTVSPost2010PropOp45
 70
     1
102
RTVSPost2010Prop46
 90
       50
102
RTVSPost2010PropOp46
 70
     1
102
RTVSPost2010Prop47
 90
       50
102
RTVSPost2010PropOp47
 70
     1
102
RTVSPost2010Prop48
 90
       50
102
RTVSPost2010PropOp48
 70
     1
102
RTVSPost2010Prop49
280
     0
102
RTVSPost2010PropOp49
 70
     1
102
RTVSPost2010Prop50
 90
       50
102
RTVSPost2010PropOp50
 70
     1
102
RTVSPost2010Prop51ColorIndex
 90
      256
102
RTVSPost2010Prop51ColorRGB
 90
-16777216
102
RTVSPost2010PropOp51
 70
     0
102
RTVSPost2010Prop52
140
1.0
102
RTVSPost2010PropOp52
 70
     0
102
RTVSPost2010Prop53
 90
        2
102
RTVSPost2010PropOp53
 70
     1
102
RTVSPost2010Prop54
  1
strokes_ogs.tif
102
RTVSPost2010PropOp54
 70
     1
102
RTVSPost2010Prop55
280
     0
102
RTVSPost2010PropOp55
 70
     1
102
RTVSPost2010Prop56
140
1.0
102
RTVSPost2010PropOp56
 70
     1
102
RTVSPost2010Prop57
140
1.0
102
RTVSPost2010PropOp57
 70
     1
102
RTVSPropertyOp0
 70
     1
102
RTVSPropertyOp1
 70
     1
102
RTVSPropertyOp2
 70
     1
102
RTVSPropertyOp3
 70
     1
102
RTVSPropertyOp4
 70
     1
102
RTVSPropertyOp5
 70
     1
102
RTVSPropertyOp6
 70
     1
102
RTVSPropertyOp7
 70
     1
102
RTVSPropertyOp8
 70
     1
102
RTVSPropertyOp9
 70
     1
102
RTVSPropertyOp10
 70
     1
102
RTVSPropertyOp11
 70
     1
102
RTVSPropertyOp12
 70
     1
102
RTVSPropertyOp13
 70
     1
102
RTVSPropertyOp14
 70
     1
102
RTVSPropertyOp15
 70
     1
102
RTVSPropertyOp16
 70
     1
102
RTVSPropertyOp17
 70
     1
102
RTVSPropertyOp18
 70
     1
102
RTVSPropertyOp19
 70
     1
102
RTVSPropertyOp20
 70
     1
102
RTVSPropertyOp21
 70
     1
102
RTVSPropertyOp22
 70
     1
102
RTVSPropertyOp23
 70
     1
102
RTVSPropertyOp24
 70
     1
102
RTVSPropertyOp25
 70
     1
102
RTVSPropertyOp26
 70
     1
102
RTVSPropertyOp27
 70
     1
102
RTVSPropertyOp28
 70
     1
102
RTVSPropertyOp29
 70
     1
102
RTVSPropertyOp30
 70
     1
102
RTVSPropertyOp31
 70
     1
102
RTVSPropertyOp32
 70
     1
102
RTVSPropertyOp33
 70
     1
102
RTVSPropertyOp34
 70
     1
102
RTVSPropertyOp35
 70
     1
102
RTVSPropertyOp36
 70
     1
102
RTVSPropertyOp37
 70
     1
102
RTVSPropertyOp38
 70
     1
102
RTVSPropertyOp39
 70
     1
102
RTVSPropertyOp40
 70
     1
102
RTVSPropertyOp41
 70
     1
102
RTVSPropertyOp42
 70
     1
102
RTVSPropertyOp43
 70
     1
102
RTVSPropertyOp44
 70
     1
102
RTVSPropertyOp45
 70
     1
102
RTVSPropertyOp46
 70
     1
102
RTVSPropertyOp47
 70
     1
102
RTVSPropertyOp48
 70
     1
102
RTVSPropertyOp49
 70
     1
102
RTVSPropertyOp50
 70
     1
102
RTVSPropertyOp51
 70
     0
102
RTVSPropertyOp52
 70
     0
102
RTVSPropertyOp53
 70
     1
102
RTVSPropertyOp54
 70
     1
102
RTVSPropertyOp55
 70
     1
102
RTVSPropertyOp56
 70
     1
102
RTVSPropertyOp57
 70
     1
102
RTVSPropertyOp58
 70
     1
102
RTVSPropertyOp59
 70
     1
102
RTVSPropertyOp60
 70
     1
102
RTVSPropertyOp61
 70
     1
102
RTVSPropertyOp62
 70
     1
  0
XRECORD
  5
8095
102
{ACAD_REACTORS
330
8094
102
}
330
8094
100
AcDbXrecord
280
     1
102
RTVSPost2010Prop28
280
     0
102
RTVSPost2010PropOp28
 70
     1
102
RTVSPost2010Prop29
280
     1
102
RTVSPost2010PropOp29
 70
     1
102
RTVSPost2010Prop30
280
     1
102
RTVSPost2010PropOp30
 70
     1
102
RTVSPost2010Prop31
280
     0
102
RTVSPost2010PropOp31
 70
     1
102
RTVSPost2010Prop32
280
     0
102
RTVSPost2010PropOp32
 70
     1
102
RTVSPost2010Prop33
280
     0
102
RTVSPost2010PropOp33
 70
     1
102
RTVSPost2010Prop34
280
     0
102
RTVSPost2010PropOp34
 70
     1
102
RTVSPost2010Prop35
280
     0
102
RTVSPost2010PropOp35
 70
     1
102
RTVSPost2010Prop36
280
     0
102
RTVSPost2010PropOp36
 70
     1
102
RTVSPost2010Prop37
 90
       50
102
RTVSPost2010PropOp37
 70
     0
102
RTVSPost2010Prop38
140
0.0
102
RTVSPost2010PropOp38
 70
     0
102
RTVSPost2010Prop39
140
1.0
102
RTVSPost2010PropOp39
 70
     0
102
RTVSPost2010Prop40
 90
        0
102
RTVSPost2010PropOp40
 70
     0
102
RTVSPost2010Prop41ColorIndex
 90
       18
102
RTVSPost2010Prop41ColorRGB
 90
        0
102
RTVSPost2010PropOp41
 70
     0
102
RTVSPost2010Prop42
 90
       50
102
RTVSPost2010PropOp42
 70
     0
102
RTVSPost2010Prop43
 90
        3
102
RTVSPost2010PropOp43
 70
     0
102
RTVSPost2010Prop44ColorIndex
 90
        5
102
RTVSPost2010Prop44ColorRGB
 90
      255
102
RTVSPost2010PropOp44
 70
     0
102
RTVSPost2010Prop45
280
     0
102
RTVSPost2010PropOp45
 70
     1
102
RTVSPost2010Prop46
 90
       50
102
RTVSPost2010PropOp46
 70
     0
102
RTVSPost2010Prop47
 90
       50
102
RTVSPost2010PropOp47
 70
     0
102
RTVSPost2010Prop48
 90
       50
102
RTVSPost2010PropOp48
 70
     0
102
RTVSPost2010Prop49
280
     0
102
RTVSPost2010PropOp49
 70
     1
102
RTVSPost2010Prop50
 90
       50
102
RTVSPost2010PropOp50
 70
     0
102
RTVSPost2010Prop51ColorIndex
 90
      256
102
RTVSPost2010Prop51ColorRGB
 90
-16777216
102
RTVSPost2010PropOp51
 70
     0
102
RTVSPost2010Prop52
140
1.0
102
RTVSPost2010PropOp52
 70
     0
102
RTVSPost2010Prop53
 90
        2
102
RTVSPost2010PropOp53
 70
     0
102
RTVSPost2010Prop54
  1
strokes_ogs.tif
102
RTVSPost2010PropOp54
 70
     0
102
RTVSPost2010Prop55
280
     0
102
RTVSPost2010PropOp55
 70
     1
102
RTVSPost2010Prop56
140
1.0
102
RTVSPost2010PropOp56
 70
     0
102
RTVSPost2010Prop57
140
1.0
102
RTVSPost2010PropOp57
 70
     0
102
RTVSPropertyOp0
 70
     0
102
RTVSPropertyOp1
 70
     0
102
RTVSPropertyOp2
 70
     0
102
RTVSPropertyOp3
 70
     0
102
RTVSPropertyOp4
 70
     0
102
RTVSPropertyOp5
 70
     0
102
RTVSPropertyOp6
 70
     0
102
RTVSPropertyOp7
 70
     0
102
RTVSPropertyOp8
 70
     0
102
RTVSPropertyOp9
 70
     0
102
RTVSPropertyOp10
 70
     0
102
RTVSPropertyOp11
 70
     0
102
RTVSPropertyOp12
 70
     0
102
RTVSPropertyOp13
 70
     0
102
RTVSPropertyOp14
 70
     2
102
RTVSPropertyOp15
 70
     0
102
RTVSPropertyOp16
 70
     0
102
RTVSPropertyOp17
 70
     0
102
RTVSPropertyOp18
 70
     0
102
RTVSPropertyOp19
 70
     0
102
RTVSPropertyOp20
 70
     0
102
RTVSPropertyOp21
 70
     0
102
RTVSPropertyOp22
 70
     0
102
RTVSPropertyOp23
 70
     0
102
RTVSPropertyOp24
 70
     0
102
RTVSPropertyOp25
 70
     0
102
RTVSPropertyOp26
 70
     0
102
RTVSPropertyOp27
 70
     0
102
RTVSPropertyOp28
 70
     1
102
RTVSPropertyOp29
 70
     1
102
RTVSPropertyOp30
 70
     1
102
RTVSPropertyOp31
 70
     1
102
RTVSPropertyOp32
 70
     1
102
RTVSPropertyOp33
 70
     1
102
RTVSPropertyOp34
 70
     1
102
RTVSPropertyOp35
 70
     1
102
RTVSPropertyOp36
 70
     1
102
RTVSPropertyOp37
 70
     0
102
RTVSPropertyOp38
 70
     0
102
RTVSPropertyOp39
 70
     0
102
RTVSPropertyOp40
 70
     0
102
RTVSPropertyOp41
 70
     0
102
RTVSPropertyOp42
 70
     0
102
RTVSPropertyOp43
 70
     0
102
RTVSPropertyOp44
 70
     0
102
RTVSPropertyOp45
 70
     1
102
RTVSPropertyOp46
 70
     0
102
RTVSPropertyOp47
 70
     0
102
RTVSPropertyOp48
 70
     0
102
RTVSPropertyOp49
 70
     1
102
RTVSPropertyOp50
 70
     0
102
RTVSPropertyOp51
 70
     0
102
RTVSPropertyOp52
 70
     0
102
RTVSPropertyOp53
 70
     0
102
RTVSPropertyOp54
 70
     0
102
RTVSPropertyOp55
 70
     1
102
RTVSPropertyOp56
 70
     0
102
RTVSPropertyOp57
 70
     0
102
RTVSPropertyOp58
 70
     0
102
RTVSPropertyOp59
 70
     0
102
RTVSPropertyOp60
 70
     0
102
RTVSPropertyOp61
 70
     0
102
RTVSPropertyOp62
 70
     0
  0
XRECORD
  5
807F
102
{ACAD_REACTORS
330
807E
102
}
330
807E
100
AcDbXrecord
280
     1
102
RTVSPost2010Prop28
280
     0
102
RTVSPost2010PropOp28
 70
     1
102
RTVSPost2010Prop29
280
     1
102
RTVSPost2010PropOp29
 70
     1
102
RTVSPost2010Prop30
280
     1
102
RTVSPost2010PropOp30
 70
     1
102
RTVSPost2010Prop31
280
     0
102
RTVSPost2010PropOp31
 70
     1
102
RTVSPost2010Prop32
280
     0
102
RTVSPost2010PropOp32
 70
     1
102
RTVSPost2010Prop33
280
     0
102
RTVSPost2010PropOp33
 70
     1
102
RTVSPost2010Prop34
280
     0
102
RTVSPost2010PropOp34
 70
     1
102
RTVSPost2010Prop35
280
     0
102
RTVSPost2010PropOp35
 70
     1
102
RTVSPost2010Prop36
280
     0
102
RTVSPost2010PropOp36
 70
     1
102
RTVSPost2010Prop37
 90
       50
102
RTVSPost2010PropOp37
 70
     1
102
RTVSPost2010Prop38
140
0.0
102
RTVSPost2010PropOp38
 70
     1
102
RTVSPost2010Prop39
140
1.0
102
RTVSPost2010PropOp39
 70
     1
102
RTVSPost2010Prop40
 90
        0
102
RTVSPost2010PropOp40
 70
     1
102
RTVSPost2010Prop41ColorIndex
 90
       18
102
RTVSPost2010Prop41ColorRGB
 90
        0
102
RTVSPost2010PropOp41
 70
     1
102
RTVSPost2010Prop42
 90
       50
102
RTVSPost2010PropOp42
 70
     1
102
RTVSPost2010Prop43
 90
        3
102
RTVSPost2010PropOp43
 70
     1
102
RTVSPost2010Prop44ColorIndex
 90
        5
102
RTVSPost2010Prop44ColorRGB
 90
      255
102
RTVSPost2010PropOp44
 70
     1
102
RTVSPost2010Prop45
280
     0
102
RTVSPost2010PropOp45
 70
     1
102
RTVSPost2010Prop46
 90
       50
102
RTVSPost2010PropOp46
 70
     1
102
RTVSPost2010Prop47
 90
       50
102
RTVSPost2010PropOp47
 70
     1
102
RTVSPost2010Prop48
 90
       50
102
RTVSPost2010PropOp48
 70
     1
102
RTVSPost2010Prop49
280
     0
102
RTVSPost2010PropOp49
 70
     1
102
RTVSPost2010Prop50
 90
       50
102
RTVSPost2010PropOp50
 70
     1
102
RTVSPost2010Prop51ColorIndex
 90
      256
102
RTVSPost2010Prop51ColorRGB
 90
-16777216
102
RTVSPost2010PropOp51
 70
     0
102
RTVSPost2010Prop52
140
1.0
102
RTVSPost2010PropOp52
 70
     0
102
RTVSPost2010Prop53
 90
        2
102
RTVSPost2010PropOp53
 70
     1
102
RTVSPost2010Prop54
  1
strokes_ogs.tif
102
RTVSPost2010PropOp54
 70
     1
102
RTVSPost2010Prop55
280
     0
102
RTVSPost2010PropOp55
 70
     1
102
RTVSPost2010Prop56
140
1.0
102
RTVSPost2010PropOp56
 70
     1
102
RTVSPost2010Prop57
140
1.0
102
RTVSPost2010PropOp57
 70
     1
102
RTVSPropertyOp0
 70
     1
102
RTVSPropertyOp1
 70
     1
102
RTVSPropertyOp2
 70
     1
102
RTVSPropertyOp3
 70
     1
102
RTVSPropertyOp4
 70
     1
102
RTVSPropertyOp5
 70
     1
102
RTVSPropertyOp6
 70
     1
102
RTVSPropertyOp7
 70
     1
102
RTVSPropertyOp8
 70
     1
102
RTVSPropertyOp9
 70
     1
102
RTVSPropertyOp10
 70
     1
102
RTVSPropertyOp11
 70
     1
102
RTVSPropertyOp12
 70
     1
102
RTVSPropertyOp13
 70
     1
102
RTVSPropertyOp14
 70
     1
102
RTVSPropertyOp15
 70
     1
102
RTVSPropertyOp16
 70
     1
102
RTVSPropertyOp17
 70
     1
102
RTVSPropertyOp18
 70
     1
102
RTVSPropertyOp19
 70
     1
102
RTVSPropertyOp20
 70
     1
102
RTVSPropertyOp21
 70
     1
102
RTVSPropertyOp22
 70
     1
102
RTVSPropertyOp23
 70
     1
102
RTVSPropertyOp24
 70
     1
102
RTVSPropertyOp25
 70
     1
102
RTVSPropertyOp26
 70
     1
102
RTVSPropertyOp27
 70
     1
102
RTVSPropertyOp28
 70
     1
102
RTVSPropertyOp29
 70
     1
102
RTVSPropertyOp30
 70
     1
102
RTVSPropertyOp31
 70
     1
102
RTVSPropertyOp32
 70
     1
102
RTVSPropertyOp33
 70
     1
102
RTVSPropertyOp34
 70
     1
102
RTVSPropertyOp35
 70
     1
102
RTVSPropertyOp36
 70
     1
102
RTVSPropertyOp37
 70
     1
102
RTVSPropertyOp38
 70
     1
102
RTVSPropertyOp39
 70
     1
102
RTVSPropertyOp40
 70
     1
102
RTVSPropertyOp41
 70
     1
102
RTVSPropertyOp42
 70
     1
102
RTVSPropertyOp43
 70
     1
102
RTVSPropertyOp44
 70
     1
102
RTVSPropertyOp45
 70
     1
102
RTVSPropertyOp46
 70
     1
102
RTVSPropertyOp47
 70
     1
102
RTVSPropertyOp48
 70
     1
102
RTVSPropertyOp49
 70
     1
102
RTVSPropertyOp50
 70
     1
102
RTVSPropertyOp51
 70
     0
102
RTVSPropertyOp52
 70
     0
102
RTVSPropertyOp53
 70
     1
102
RTVSPropertyOp54
 70
     1
102
RTVSPropertyOp55
 70
     1
102
RTVSPropertyOp56
 70
     1
102
RTVSPropertyOp57
 70
     1
102
RTVSPropertyOp58
 70
     1
102
RTVSPropertyOp59
 70
     1
102
RTVSPropertyOp60
 70
     1
102
RTVSPropertyOp61
 70
     1
102
RTVSPropertyOp62
 70
     1
  0
XRECORD
  5
8063
102
{ACAD_REACTORS
330
8062
102
}
330
8062
100
AcDbXrecord
280
     1
102
RTVSPost2010Prop28
280
     0
102
RTVSPost2010PropOp28
 70
     1
102
RTVSPost2010Prop29
280
     1
102
RTVSPost2010PropOp29
 70
     1
102
RTVSPost2010Prop30
280
     1
102
RTVSPost2010PropOp30
 70
     1
102
RTVSPost2010Prop31
280
     0
102
RTVSPost2010PropOp31
 70
     1
102
RTVSPost2010Prop32
280
     0
102
RTVSPost2010PropOp32
 70
     1
102
RTVSPost2010Prop33
280
     0
102
RTVSPost2010PropOp33
 70
     1
102
RTVSPost2010Prop34
280
     0
102
RTVSPost2010PropOp34
 70
     1
102
RTVSPost2010Prop35
280
     0
102
RTVSPost2010PropOp35
 70
     1
102
RTVSPost2010Prop36
280
     0
102
RTVSPost2010PropOp36
 70
     1
102
RTVSPost2010Prop37
 90
       50
102
RTVSPost2010PropOp37
 70
     1
102
RTVSPost2010Prop38
140
0.0
102
RTVSPost2010PropOp38
 70
     1
102
RTVSPost2010Prop39
140
1.0
102
RTVSPost2010PropOp39
 70
     1
102
RTVSPost2010Prop40
 90
        0
102
RTVSPost2010PropOp40
 70
     1
102
RTVSPost2010Prop41ColorIndex
 90
       18
102
RTVSPost2010Prop41ColorRGB
 90
        0
102
RTVSPost2010PropOp41
 70
     1
102
RTVSPost2010Prop42
 90
       50
102
RTVSPost2010PropOp42
 70
     1
102
RTVSPost2010Prop43
 90
        3
102
RTVSPost2010PropOp43
 70
     1
102
RTVSPost2010Prop44ColorIndex
 90
        5
102
RTVSPost2010Prop44ColorRGB
 90
      255
102
RTVSPost2010PropOp44
 70
     1
102
RTVSPost2010Prop45
280
     0
102
RTVSPost2010PropOp45
 70
     1
102
RTVSPost2010Prop46
 90
       50
102
RTVSPost2010PropOp46
 70
     1
102
RTVSPost2010Prop47
 90
       50
102
RTVSPost2010PropOp47
 70
     1
102
RTVSPost2010Prop48
 90
       50
102
RTVSPost2010PropOp48
 70
     1
102
RTVSPost2010Prop49
280
     0
102
RTVSPost2010PropOp49
 70
     1
102
RTVSPost2010Prop50
 90
       50
102
RTVSPost2010PropOp50
 70
     1
102
RTVSPost2010Prop51ColorIndex
 90
      256
102
RTVSPost2010Prop51ColorRGB
 90
-16777216
102
RTVSPost2010PropOp51
 70
     0
102
RTVSPost2010Prop52
140
1.0
102
RTVSPost2010PropOp52
 70
     0
102
RTVSPost2010Prop53
 90
        2
102
RTVSPost2010PropOp53
 70
     1
102
RTVSPost2010Prop54
  1
strokes_ogs.tif
102
RTVSPost2010PropOp54
 70
     1
102
RTVSPost2010Prop55
280
     0
102
RTVSPost2010PropOp55
 70
     1
102
RTVSPost2010Prop56
140
1.0
102
RTVSPost2010PropOp56
 70
     1
102
RTVSPost2010Prop57
140
1.0
102
RTVSPost2010PropOp57
 70
     1
102
RTVSPropertyOp0
 70
     1
102
RTVSPropertyOp1
 70
     1
102
RTVSPropertyOp2
 70
     1
102
RTVSPropertyOp3
 70
     1
102
RTVSPropertyOp4
 70
     1
102
RTVSPropertyOp5
 70
     1
102
RTVSPropertyOp6
 70
     1
102
RTVSPropertyOp7
 70
     1
102
RTVSPropertyOp8
 70
     1
102
RTVSPropertyOp9
 70
     1
102
RTVSPropertyOp10
 70
     1
102
RTVSPropertyOp11
 70
     1
102
RTVSPropertyOp12
 70
     1
102
RTVSPropertyOp13
 70
     1
102
RTVSPropertyOp14
 70
     1
102
RTVSPropertyOp15
 70
     1
102
RTVSPropertyOp16
 70
     1
102
RTVSPropertyOp17
 70
     1
102
RTVSPropertyOp18
 70
     1
102
RTVSPropertyOp19
 70
     1
102
RTVSPropertyOp20
 70
     1
102
RTVSPropertyOp21
 70
     1
102
RTVSPropertyOp22
 70
     1
102
RTVSPropertyOp23
 70
     1
102
RTVSPropertyOp24
 70
     1
102
RTVSPropertyOp25
 70
     1
102
RTVSPropertyOp26
 70
     1
102
RTVSPropertyOp27
 70
     1
102
RTVSPropertyOp28
 70
     1
102
RTVSPropertyOp29
 70
     1
102
RTVSPropertyOp30
 70
     1
102
RTVSPropertyOp31
 70
     1
102
RTVSPropertyOp32
 70
     1
102
RTVSPropertyOp33
 70
     1
102
RTVSPropertyOp34
 70
     1
102
RTVSPropertyOp35
 70
     1
102
RTVSPropertyOp36
 70
     1
102
RTVSPropertyOp37
 70
     1
102
RTVSPropertyOp38
 70
     1
102
RTVSPropertyOp39
 70
     1
102
RTVSPropertyOp40
 70
     1
102
RTVSPropertyOp41
 70
     1
102
RTVSPropertyOp42
 70
     1
102
RTVSPropertyOp43
 70
     1
102
RTVSPropertyOp44
 70
     1
102
RTVSPropertyOp45
 70
     1
102
RTVSPropertyOp46
 70
     1
102
RTVSPropertyOp47
 70
     1
102
RTVSPropertyOp48
 70
     1
102
RTVSPropertyOp49
 70
     1
102
RTVSPropertyOp50
 70
     1
102
RTVSPropertyOp51
 70
     0
102
RTVSPropertyOp52
 70
     0
102
RTVSPropertyOp53
 70
     1
102
RTVSPropertyOp54
 70
     1
102
RTVSPropertyOp55
 70
     1
102
RTVSPropertyOp56
 70
     1
102
RTVSPropertyOp57
 70
     1
102
RTVSPropertyOp58
 70
     1
102
RTVSPropertyOp59
 70
     1
102
RTVSPropertyOp60
 70
     1
102
RTVSPropertyOp61
 70
     1
102
RTVSPropertyOp62
 70
     1
  0
XRECORD
  5
8065
102
{ACAD_REACTORS
330
8064
102
}
330
8064
100
AcDbXrecord
280
     1
102
RTVSPost2010Prop28
280
     0
102
RTVSPost2010PropOp28
 70
     1
102
RTVSPost2010Prop29
280
     1
102
RTVSPost2010PropOp29
 70
     1
102
RTVSPost2010Prop30
280
     1
102
RTVSPost2010PropOp30
 70
     1
102
RTVSPost2010Prop31
280
     0
102
RTVSPost2010PropOp31
 70
     1
102
RTVSPost2010Prop32
280
     0
102
RTVSPost2010PropOp32
 70
     1
102
RTVSPost2010Prop33
280
     0
102
RTVSPost2010PropOp33
 70
     1
102
RTVSPost2010Prop34
280
     0
102
RTVSPost2010PropOp34
 70
     1
102
RTVSPost2010Prop35
280
     0
102
RTVSPost2010PropOp35
 70
     1
102
RTVSPost2010Prop36
280
     0
102
RTVSPost2010PropOp36
 70
     1
102
RTVSPost2010Prop37
 90
       50
102
RTVSPost2010PropOp37
 70
     1
102
RTVSPost2010Prop38
140
0.0
102
RTVSPost2010PropOp38
 70
     1
102
RTVSPost2010Prop39
140
1.0
102
RTVSPost2010PropOp39
 70
     1
102
RTVSPost2010Prop40
 90
        0
102
RTVSPost2010PropOp40
 70
     1
102
RTVSPost2010Prop41ColorIndex
 90
       18
102
RTVSPost2010Prop41ColorRGB
 90
        0
102
RTVSPost2010PropOp41
 70
     1
102
RTVSPost2010Prop42
 90
       50
102
RTVSPost2010PropOp42
 70
     1
102
RTVSPost2010Prop43
 90
        3
102
RTVSPost2010PropOp43
 70
     1
102
RTVSPost2010Prop44ColorIndex
 90
        5
102
RTVSPost2010Prop44ColorRGB
 90
      255
102
RTVSPost2010PropOp44
 70
     1
102
RTVSPost2010Prop45
280
     0
102
RTVSPost2010PropOp45
 70
     1
102
RTVSPost2010Prop46
 90
       50
102
RTVSPost2010PropOp46
 70
     1
102
RTVSPost2010Prop47
 90
       50
102
RTVSPost2010PropOp47
 70
     1
102
RTVSPost2010Prop48
 90
       50
102
RTVSPost2010PropOp48
 70
     1
102
RTVSPost2010Prop49
280
     0
102
RTVSPost2010PropOp49
 70
     1
102
RTVSPost2010Prop50
 90
       50
102
RTVSPost2010PropOp50
 70
     1
102
RTVSPost2010Prop51ColorIndex
 90
      256
102
RTVSPost2010Prop51ColorRGB
 90
-16777216
102
RTVSPost2010PropOp51
 70
     0
102
RTVSPost2010Prop52
140
1.0
102
RTVSPost2010PropOp52
 70
     0
102
RTVSPost2010Prop53
 90
        2
102
RTVSPost2010PropOp53
 70
     1
102
RTVSPost2010Prop54
  1
strokes_ogs.tif
102
RTVSPost2010PropOp54
 70
     1
102
RTVSPost2010Prop55
280
     0
102
RTVSPost2010PropOp55
 70
     1
102
RTVSPost2010Prop56
140
1.0
102
RTVSPost2010PropOp56
 70
     1
102
RTVSPost2010Prop57
140
1.0
102
RTVSPost2010PropOp57
 70
     1
102
RTVSPropertyOp0
 70
     1
102
RTVSPropertyOp1
 70
     1
102
RTVSPropertyOp2
 70
     1
102
RTVSPropertyOp3
 70
     1
102
RTVSPropertyOp4
 70
     1
102
RTVSPropertyOp5
 70
     1
102
RTVSPropertyOp6
 70
     1
102
RTVSPropertyOp7
 70
     1
102
RTVSPropertyOp8
 70
     1
102
RTVSPropertyOp9
 70
     1
102
RTVSPropertyOp10
 70
     1
102
RTVSPropertyOp11
 70
     1
102
RTVSPropertyOp12
 70
     1
102
RTVSPropertyOp13
 70
     1
102
RTVSPropertyOp14
 70
     1
102
RTVSPropertyOp15
 70
     1
102
RTVSPropertyOp16
 70
     1
102
RTVSPropertyOp17
 70
     1
102
RTVSPropertyOp18
 70
     1
102
RTVSPropertyOp19
 70
     1
102
RTVSPropertyOp20
 70
     1
102
RTVSPropertyOp21
 70
     1
102
RTVSPropertyOp22
 70
     1
102
RTVSPropertyOp23
 70
     1
102
RTVSPropertyOp24
 70
     1
102
RTVSPropertyOp25
 70
     1
102
RTVSPropertyOp26
 70
     1
102
RTVSPropertyOp27
 70
     1
102
RTVSPropertyOp28
 70
     1
102
RTVSPropertyOp29
 70
     1
102
RTVSPropertyOp30
 70
     1
102
RTVSPropertyOp31
 70
     1
102
RTVSPropertyOp32
 70
     1
102
RTVSPropertyOp33
 70
     1
102
RTVSPropertyOp34
 70
     1
102
RTVSPropertyOp35
 70
     1
102
RTVSPropertyOp36
 70
     1
102
RTVSPropertyOp37
 70
     1
102
RTVSPropertyOp38
 70
     1
102
RTVSPropertyOp39
 70
     1
102
RTVSPropertyOp40
 70
     1
102
RTVSPropertyOp41
 70
     1
102
RTVSPropertyOp42
 70
     1
102
RTVSPropertyOp43
 70
     1
102
RTVSPropertyOp44
 70
     1
102
RTVSPropertyOp45
 70
     1
102
RTVSPropertyOp46
 70
     1
102
RTVSPropertyOp47
 70
     1
102
RTVSPropertyOp48
 70
     1
102
RTVSPropertyOp49
 70
     1
102
RTVSPropertyOp50
 70
     1
102
RTVSPropertyOp51
 70
     0
102
RTVSPropertyOp52
 70
     0
102
RTVSPropertyOp53
 70
     1
102
RTVSPropertyOp54
 70
     1
102
RTVSPropertyOp55
 70
     1
102
RTVSPropertyOp56
 70
     1
102
RTVSPropertyOp57
 70
     1
102
RTVSPropertyOp58
 70
     1
102
RTVSPropertyOp59
 70
     1
102
RTVSPropertyOp60
 70
     1
102
RTVSPropertyOp61
 70
     1
102
RTVSPropertyOp62
 70
     1
  0
XRECORD
  5
8067
102
{ACAD_REACTORS
330
8066
102
}
330
8066
100
AcDbXrecord
280
     1
102
RTVSPost2010Prop28
280
     0
102
RTVSPost2010PropOp28
 70
     1
102
RTVSPost2010Prop29
280
     1
102
RTVSPost2010PropOp29
 70
     1
102
RTVSPost2010Prop30
280
     1
102
RTVSPost2010PropOp30
 70
     1
102
RTVSPost2010Prop31
280
     0
102
RTVSPost2010PropOp31
 70
     1
102
RTVSPost2010Prop32
280
     0
102
RTVSPost2010PropOp32
 70
     1
102
RTVSPost2010Prop33
280
     0
102
RTVSPost2010PropOp33
 70
     1
102
RTVSPost2010Prop34
280
     0
102
RTVSPost2010PropOp34
 70
     1
102
RTVSPost2010Prop35
280
     0
102
RTVSPost2010PropOp35
 70
     1
102
RTVSPost2010Prop36
280
     0
102
RTVSPost2010PropOp36
 70
     1
102
RTVSPost2010Prop37
 90
       50
102
RTVSPost2010PropOp37
 70
     1
102
RTVSPost2010Prop38
140
0.0
102
RTVSPost2010PropOp38
 70
     1
102
RTVSPost2010Prop39
140
1.0
102
RTVSPost2010PropOp39
 70
     1
102
RTVSPost2010Prop40
 90
        0
102
RTVSPost2010PropOp40
 70
     1
102
RTVSPost2010Prop41ColorIndex
 90
       18
102
RTVSPost2010Prop41ColorRGB
 90
        0
102
RTVSPost2010PropOp41
 70
     1
102
RTVSPost2010Prop42
 90
       50
102
RTVSPost2010PropOp42
 70
     1
102
RTVSPost2010Prop43
 90
        3
102
RTVSPost2010PropOp43
 70
     1
102
RTVSPost2010Prop44ColorIndex
 90
        5
102
RTVSPost2010Prop44ColorRGB
 90
      255
102
RTVSPost2010PropOp44
 70
     1
102
RTVSPost2010Prop45
280
     0
102
RTVSPost2010PropOp45
 70
     1
102
RTVSPost2010Prop46
 90
       50
102
RTVSPost2010PropOp46
 70
     1
102
RTVSPost2010Prop47
 90
       50
102
RTVSPost2010PropOp47
 70
     1
102
RTVSPost2010Prop48
 90
       50
102
RTVSPost2010PropOp48
 70
     1
102
RTVSPost2010Prop49
280
     0
102
RTVSPost2010PropOp49
 70
     1
102
RTVSPost2010Prop50
 90
       50
102
RTVSPost2010PropOp50
 70
     1
102
RTVSPost2010Prop51ColorIndex
 90
      256
102
RTVSPost2010Prop51ColorRGB
 90
-16777216
102
RTVSPost2010PropOp51
 70
     0
102
RTVSPost2010Prop52
140
1.0
102
RTVSPost2010PropOp52
 70
     0
102
RTVSPost2010Prop53
 90
        2
102
RTVSPost2010PropOp53
 70
     1
102
RTVSPost2010Prop54
  1
strokes_ogs.tif
102
RTVSPost2010PropOp54
 70
     1
102
RTVSPost2010Prop55
280
     0
102
RTVSPost2010PropOp55
 70
     1
102
RTVSPost2010Prop56
140
1.0
102
RTVSPost2010PropOp56
 70
     1
102
RTVSPost2010Prop57
140
1.0
102
RTVSPost2010PropOp57
 70
     1
102
RTVSPropertyOp0
 70
     1
102
RTVSPropertyOp1
 70
     1
102
RTVSPropertyOp2
 70
     1
102
RTVSPropertyOp3
 70
     1
102
RTVSPropertyOp4
 70
     1
102
RTVSPropertyOp5
 70
     1
102
RTVSPropertyOp6
 70
     1
102
RTVSPropertyOp7
 70
     1
102
RTVSPropertyOp8
 70
     1
102
RTVSPropertyOp9
 70
     1
102
RTVSPropertyOp10
 70
     1
102
RTVSPropertyOp11
 70
     1
102
RTVSPropertyOp12
 70
     1
102
RTVSPropertyOp13
 70
     1
102
RTVSPropertyOp14
 70
     1
102
RTVSPropertyOp15
 70
     1
102
RTVSPropertyOp16
 70
     1
102
RTVSPropertyOp17
 70
     1
102
RTVSPropertyOp18
 70
     1
102
RTVSPropertyOp19
 70
     1
102
RTVSPropertyOp20
 70
     1
102
RTVSPropertyOp21
 70
     1
102
RTVSPropertyOp22
 70
     1
102
RTVSPropertyOp23
 70
     1
102
RTVSPropertyOp24
 70
     1
102
RTVSPropertyOp25
 70
     1
102
RTVSPropertyOp26
 70
     1
102
RTVSPropertyOp27
 70
     1
102
RTVSPropertyOp28
 70
     1
102
RTVSPropertyOp29
 70
     1
102
RTVSPropertyOp30
 70
     1
102
RTVSPropertyOp31
 70
     1
102
RTVSPropertyOp32
 70
     1
102
RTVSPropertyOp33
 70
     1
102
RTVSPropertyOp34
 70
     1
102
RTVSPropertyOp35
 70
     1
102
RTVSPropertyOp36
 70
     1
102
RTVSPropertyOp37
 70
     1
102
RTVSPropertyOp38
 70
     1
102
RTVSPropertyOp39
 70
     1
102
RTVSPropertyOp40
 70
     1
102
RTVSPropertyOp41
 70
     1
102
RTVSPropertyOp42
 70
     1
102
RTVSPropertyOp43
 70
     1
102
RTVSPropertyOp44
 70
     1
102
RTVSPropertyOp45
 70
     1
102
RTVSPropertyOp46
 70
     1
102
RTVSPropertyOp47
 70
     1
102
RTVSPropertyOp48
 70
     1
102
RTVSPropertyOp49
 70
     1
102
RTVSPropertyOp50
 70
     1
102
RTVSPropertyOp51
 70
     0
102
RTVSPropertyOp52
 70
     0
102
RTVSPropertyOp53
 70
     1
102
RTVSPropertyOp54
 70
     1
102
RTVSPropertyOp55
 70
     1
102
RTVSPropertyOp56
 70
     1
102
RTVSPropertyOp57
 70
     1
102
RTVSPropertyOp58
 70
     1
102
RTVSPropertyOp59
 70
     1
102
RTVSPropertyOp60
 70
     1
102
RTVSPropertyOp61
 70
     1
102
RTVSPropertyOp62
 70
     1
  0
XRECORD
  5
8069
102
{ACAD_REACTORS
330
8068
102
}
330
8068
100
AcDbXrecord
280
     1
102
RTVSPost2010Prop28
280
     0
102
RTVSPost2010PropOp28
 70
     1
102
RTVSPost2010Prop29
280
     1
102
RTVSPost2010PropOp29
 70
     1
102
RTVSPost2010Prop30
280
     1
102
RTVSPost2010PropOp30
 70
     1
102
RTVSPost2010Prop31
280
     0
102
RTVSPost2010PropOp31
 70
     1
102
RTVSPost2010Prop32
280
     0
102
RTVSPost2010PropOp32
 70
     1
102
RTVSPost2010Prop33
280
     0
102
RTVSPost2010PropOp33
 70
     1
102
RTVSPost2010Prop34
280
     0
102
RTVSPost2010PropOp34
 70
     1
102
RTVSPost2010Prop35
280
     0
102
RTVSPost2010PropOp35
 70
     1
102
RTVSPost2010Prop36
280
     0
102
RTVSPost2010PropOp36
 70
     1
102
RTVSPost2010Prop37
 90
       50
102
RTVSPost2010PropOp37
 70
     1
102
RTVSPost2010Prop38
140
0.0
102
RTVSPost2010PropOp38
 70
     1
102
RTVSPost2010Prop39
140
1.0
102
RTVSPost2010PropOp39
 70
     1
102
RTVSPost2010Prop40
 90
        0
102
RTVSPost2010PropOp40
 70
     1
102
RTVSPost2010Prop41ColorIndex
 90
       18
102
RTVSPost2010Prop41ColorRGB
 90
        0
102
RTVSPost2010PropOp41
 70
     1
102
RTVSPost2010Prop42
 90
       50
102
RTVSPost2010PropOp42
 70
     1
102
RTVSPost2010Prop43
 90
        3
102
RTVSPost2010PropOp43
 70
     1
102
RTVSPost2010Prop44ColorIndex
 90
        5
102
RTVSPost2010Prop44ColorRGB
 90
      255
102
RTVSPost2010PropOp44
 70
     1
102
RTVSPost2010Prop45
280
     0
102
RTVSPost2010PropOp45
 70
     1
102
RTVSPost2010Prop46
 90
       50
102
RTVSPost2010PropOp46
 70
     1
102
RTVSPost2010Prop47
 90
       50
102
RTVSPost2010PropOp47
 70
     1
102
RTVSPost2010Prop48
 90
       50
102
RTVSPost2010PropOp48
 70
     1
102
RTVSPost2010Prop49
280
     0
102
RTVSPost2010PropOp49
 70
     1
102
RTVSPost2010Prop50
 90
       50
102
RTVSPost2010PropOp50
 70
     1
102
RTVSPost2010Prop51ColorIndex
 90
      256
102
RTVSPost2010Prop51ColorRGB
 90
-16777216
102
RTVSPost2010PropOp51
 70
     0
102
RTVSPost2010Prop52
140
1.0
102
RTVSPost2010PropOp52
 70
     0
102
RTVSPost2010Prop53
 90
        2
102
RTVSPost2010PropOp53
 70
     1
102
RTVSPost2010Prop54
  1
strokes_ogs.tif
102
RTVSPost2010PropOp54
 70
     1
102
RTVSPost2010Prop55
280
     0
102
RTVSPost2010PropOp55
 70
     1
102
RTVSPost2010Prop56
140
1.0
102
RTVSPost2010PropOp56
 70
     1
102
RTVSPost2010Prop57
140
1.0
102
RTVSPost2010PropOp57
 70
     1
102
RTVSPropertyOp0
 70
     1
102
RTVSPropertyOp1
 70
     1
102
RTVSPropertyOp2
 70
     1
102
RTVSPropertyOp3
 70
     1
102
RTVSPropertyOp4
 70
     1
102
RTVSPropertyOp5
 70
     1
102
RTVSPropertyOp6
 70
     1
102
RTVSPropertyOp7
 70
     1
102
RTVSPropertyOp8
 70
     1
102
RTVSPropertyOp9
 70
     1
102
RTVSPropertyOp10
 70
     1
102
RTVSPropertyOp11
 70
     1
102
RTVSPropertyOp12
 70
     1
102
RTVSPropertyOp13
 70
     1
102
RTVSPropertyOp14
 70
     1
102
RTVSPropertyOp15
 70
     1
102
RTVSPropertyOp16
 70
     1
102
RTVSPropertyOp17
 70
     1
102
RTVSPropertyOp18
 70
     1
102
RTVSPropertyOp19
 70
     1
102
RTVSPropertyOp20
 70
     1
102
RTVSPropertyOp21
 70
     1
102
RTVSPropertyOp22
 70
     1
102
RTVSPropertyOp23
 70
     1
102
RTVSPropertyOp24
 70
     1
102
RTVSPropertyOp25
 70
     1
102
RTVSPropertyOp26
 70
     1
102
RTVSPropertyOp27
 70
     1
102
RTVSPropertyOp28
 70
     1
102
RTVSPropertyOp29
 70
     1
102
RTVSPropertyOp30
 70
     1
102
RTVSPropertyOp31
 70
     1
102
RTVSPropertyOp32
 70
     1
102
RTVSPropertyOp33
 70
     1
102
RTVSPropertyOp34
 70
     1
102
RTVSPropertyOp35
 70
     1
102
RTVSPropertyOp36
 70
     1
102
RTVSPropertyOp37
 70
     1
102
RTVSPropertyOp38
 70
     1
102
RTVSPropertyOp39
 70
     1
102
RTVSPropertyOp40
 70
     1
102
RTVSPropertyOp41
 70
     1
102
RTVSPropertyOp42
 70
     1
102
RTVSPropertyOp43
 70
     1
102
RTVSPropertyOp44
 70
     1
102
RTVSPropertyOp45
 70
     1
102
RTVSPropertyOp46
 70
     1
102
RTVSPropertyOp47
 70
     1
102
RTVSPropertyOp48
 70
     1
102
RTVSPropertyOp49
 70
     1
102
RTVSPropertyOp50
 70
     1
102
RTVSPropertyOp51
 70
     0
102
RTVSPropertyOp52
 70
     0
102
RTVSPropertyOp53
 70
     1
102
RTVSPropertyOp54
 70
     1
102
RTVSPropertyOp55
 70
     1
102
RTVSPropertyOp56
 70
     1
102
RTVSPropertyOp57
 70
     1
102
RTVSPropertyOp58
 70
     1
102
RTVSPropertyOp59
 70
     1
102
RTVSPropertyOp60
 70
     1
102
RTVSPropertyOp61
 70
     1
102
RTVSPropertyOp62
 70
     1
  0
XRECORD
  5
8085
102
{ACAD_REACTORS
330
8084
102
}
330
8084
100
AcDbXrecord
280
     1
102
RTVSPost2010Prop28
280
     0
102
RTVSPost2010PropOp28
 70
     1
102
RTVSPost2010Prop29
280
     1
102
RTVSPost2010PropOp29
 70
     1
102
RTVSPost2010Prop30
280
     1
102
RTVSPost2010PropOp30
 70
     1
102
RTVSPost2010Prop31
280
     0
102
RTVSPost2010PropOp31
 70
     1
102
RTVSPost2010Prop32
280
     0
102
RTVSPost2010PropOp32
 70
     1
102
RTVSPost2010Prop33
280
     0
102
RTVSPost2010PropOp33
 70
     1
102
RTVSPost2010Prop34
280
     0
102
RTVSPost2010PropOp34
 70
     1
102
RTVSPost2010Prop35
280
     0
102
RTVSPost2010PropOp35
 70
     1
102
RTVSPost2010Prop36
280
     0
102
RTVSPost2010PropOp36
 70
     1
102
RTVSPost2010Prop37
 90
       50
102
RTVSPost2010PropOp37
 70
     1
102
RTVSPost2010Prop38
140
0.0
102
RTVSPost2010PropOp38
 70
     1
102
RTVSPost2010Prop39
140
1.0
102
RTVSPost2010PropOp39
 70
     1
102
RTVSPost2010Prop40
 90
        0
102
RTVSPost2010PropOp40
 70
     1
102
RTVSPost2010Prop41ColorIndex
 90
       18
102
RTVSPost2010Prop41ColorRGB
 90
        0
102
RTVSPost2010PropOp41
 70
     1
102
RTVSPost2010Prop42
 90
       50
102
RTVSPost2010PropOp42
 70
     1
102
RTVSPost2010Prop43
 90
        3
102
RTVSPost2010PropOp43
 70
     1
102
RTVSPost2010Prop44ColorIndex
 90
        5
102
RTVSPost2010Prop44ColorRGB
 90
      255
102
RTVSPost2010PropOp44
 70
     1
102
RTVSPost2010Prop45
280
     0
102
RTVSPost2010PropOp45
 70
     1
102
RTVSPost2010Prop46
 90
       50
102
RTVSPost2010PropOp46
 70
     1
102
RTVSPost2010Prop47
 90
       50
102
RTVSPost2010PropOp47
 70
     1
102
RTVSPost2010Prop48
 90
       50
102
RTVSPost2010PropOp48
 70
     1
102
RTVSPost2010Prop49
280
     0
102
RTVSPost2010PropOp49
 70
     1
102
RTVSPost2010Prop50
 90
       50
102
RTVSPost2010PropOp50
 70
     1
102
RTVSPost2010Prop51ColorIndex
 90
      256
102
RTVSPost2010Prop51ColorRGB
 90
-16777216
102
RTVSPost2010PropOp51
 70
     0
102
RTVSPost2010Prop52
140
1.0
102
RTVSPost2010PropOp52
 70
     0
102
RTVSPost2010Prop53
 90
        2
102
RTVSPost2010PropOp53
 70
     1
102
RTVSPost2010Prop54
  1
strokes_ogs.tif
102
RTVSPost2010PropOp54
 70
     1
102
RTVSPost2010Prop55
280
     0
102
RTVSPost2010PropOp55
 70
     1
102
RTVSPost2010Prop56
140
1.0
102
RTVSPost2010PropOp56
 70
     1
102
RTVSPost2010Prop57
140
1.0
102
RTVSPost2010PropOp57
 70
     1
102
RTVSPropertyOp0
 70
     1
102
RTVSPropertyOp1
 70
     1
102
RTVSPropertyOp2
 70
     1
102
RTVSPropertyOp3
 70
     1
102
RTVSPropertyOp4
 70
     1
102
RTVSPropertyOp5
 70
     1
102
RTVSPropertyOp6
 70
     1
102
RTVSPropertyOp7
 70
     1
102
RTVSPropertyOp8
 70
     1
102
RTVSPropertyOp9
 70
     1
102
RTVSPropertyOp10
 70
     1
102
RTVSPropertyOp11
 70
     1
102
RTVSPropertyOp12
 70
     1
102
RTVSPropertyOp13
 70
     1
102
RTVSPropertyOp14
 70
     1
102
RTVSPropertyOp15
 70
     1
102
RTVSPropertyOp16
 70
     1
102
RTVSPropertyOp17
 70
     1
102
RTVSPropertyOp18
 70
     1
102
RTVSPropertyOp19
 70
     1
102
RTVSPropertyOp20
 70
     1
102
RTVSPropertyOp21
 70
     1
102
RTVSPropertyOp22
 70
     1
102
RTVSPropertyOp23
 70
     1
102
RTVSPropertyOp24
 70
     1
102
RTVSPropertyOp25
 70
     1
102
RTVSPropertyOp26
 70
     1
102
RTVSPropertyOp27
 70
     1
102
RTVSPropertyOp28
 70
     1
102
RTVSPropertyOp29
 70
     1
102
RTVSPropertyOp30
 70
     1
102
RTVSPropertyOp31
 70
     1
102
RTVSPropertyOp32
 70
     1
102
RTVSPropertyOp33
 70
     1
102
RTVSPropertyOp34
 70
     1
102
RTVSPropertyOp35
 70
     1
102
RTVSPropertyOp36
 70
     1
102
RTVSPropertyOp37
 70
     1
102
RTVSPropertyOp38
 70
     1
102
RTVSPropertyOp39
 70
     1
102
RTVSPropertyOp40
 70
     1
102
RTVSPropertyOp41
 70
     1
102
RTVSPropertyOp42
 70
     1
102
RTVSPropertyOp43
 70
     1
102
RTVSPropertyOp44
 70
     1
102
RTVSPropertyOp45
 70
     1
102
RTVSPropertyOp46
 70
     1
102
RTVSPropertyOp47
 70
     1
102
RTVSPropertyOp48
 70
     1
102
RTVSPropertyOp49
 70
     1
102
RTVSPropertyOp50
 70
     1
102
RTVSPropertyOp51
 70
     0
102
RTVSPropertyOp52
 70
     0
102
RTVSPropertyOp53
 70
     1
102
RTVSPropertyOp54
 70
     1
102
RTVSPropertyOp55
 70
     1
102
RTVSPropertyOp56
 70
     1
102
RTVSPropertyOp57
 70
     1
102
RTVSPropertyOp58
 70
     1
102
RTVSPropertyOp59
 70
     1
102
RTVSPropertyOp60
 70
     1
102
RTVSPropertyOp61
 70
     1
102
RTVSPropertyOp62
 70
     1
  0
XRECORD
  5
8091
102
{ACAD_REACTORS
330
8090
102
}
330
8090
100
AcDbXrecord
280
     1
102
RTVSPost2010Prop28
280
     0
102
RTVSPost2010PropOp28
 70
     1
102
RTVSPost2010Prop29
280
     1
102
RTVSPost2010PropOp29
 70
     1
102
RTVSPost2010Prop30
280
     1
102
RTVSPost2010PropOp30
 70
     1
102
RTVSPost2010Prop31
280
     0
102
RTVSPost2010PropOp31
 70
     1
102
RTVSPost2010Prop32
280
     0
102
RTVSPost2010PropOp32
 70
     1
102
RTVSPost2010Prop33
280
     0
102
RTVSPost2010PropOp33
 70
     1
102
RTVSPost2010Prop34
280
     0
102
RTVSPost2010PropOp34
 70
     1
102
RTVSPost2010Prop35
280
     0
102
RTVSPost2010PropOp35
 70
     1
102
RTVSPost2010Prop36
280
     0
102
RTVSPost2010PropOp36
 70
     1
102
RTVSPost2010Prop37
 90
       50
102
RTVSPost2010PropOp37
 70
     0
102
RTVSPost2010Prop38
140
0.0
102
RTVSPost2010PropOp38
 70
     0
102
RTVSPost2010Prop39
140
1.0
102
RTVSPost2010PropOp39
 70
     0
102
RTVSPost2010Prop40
 90
        0
102
RTVSPost2010PropOp40
 70
     0
102
RTVSPost2010Prop41ColorIndex
 90
       18
102
RTVSPost2010Prop41ColorRGB
 90
        0
102
RTVSPost2010PropOp41
 70
     0
102
RTVSPost2010Prop42
 90
       50
102
RTVSPost2010PropOp42
 70
     0
102
RTVSPost2010Prop43
 90
        3
102
RTVSPost2010PropOp43
 70
     0
102
RTVSPost2010Prop44ColorIndex
 90
        5
102
RTVSPost2010Prop44ColorRGB
 90
      255
102
RTVSPost2010PropOp44
 70
     0
102
RTVSPost2010Prop45
280
     0
102
RTVSPost2010PropOp45
 70
     1
102
RTVSPost2010Prop46
 90
       50
102
RTVSPost2010PropOp46
 70
     0
102
RTVSPost2010Prop47
 90
       50
102
RTVSPost2010PropOp47
 70
     0
102
RTVSPost2010Prop48
 90
       50
102
RTVSPost2010PropOp48
 70
     0
102
RTVSPost2010Prop49
280
     0
102
RTVSPost2010PropOp49
 70
     1
102
RTVSPost2010Prop50
 90
       50
102
RTVSPost2010PropOp50
 70
     0
102
RTVSPost2010Prop51ColorIndex
 90
      256
102
RTVSPost2010Prop51ColorRGB
 90
-16777216
102
RTVSPost2010PropOp51
 70
     0
102
RTVSPost2010Prop52
140
1.0
102
RTVSPost2010PropOp52
 70
     0
102
RTVSPost2010Prop53
 90
        2
102
RTVSPost2010PropOp53
 70
     0
102
RTVSPost2010Prop54
  1
strokes_ogs.tif
102
RTVSPost2010PropOp54
 70
     0
102
RTVSPost2010Prop55
280
     0
102
RTVSPost2010PropOp55
 70
     1
102
RTVSPost2010Prop56
140
1.0
102
RTVSPost2010PropOp56
 70
     0
102
RTVSPost2010Prop57
140
1.0
102
RTVSPost2010PropOp57
 70
     0
102
RTVSPropertyOp0
 70
     0
102
RTVSPropertyOp1
 70
     0
102
RTVSPropertyOp2
 70
     0
102
RTVSPropertyOp3
 70
     0
102
RTVSPropertyOp4
 70
     0
102
RTVSPropertyOp5
 70
     0
102
RTVSPropertyOp6
 70
     0
102
RTVSPropertyOp7
 70
     0
102
RTVSPropertyOp8
 70
     0
102
RTVSPropertyOp9
 70
     0
102
RTVSPropertyOp10
 70
     0
102
RTVSPropertyOp11
 70
     0
102
RTVSPropertyOp12
 70
     0
102
RTVSPropertyOp13
 70
     0
102
RTVSPropertyOp14
 70
     2
102
RTVSPropertyOp15
 70
     0
102
RTVSPropertyOp16
 70
     0
102
RTVSPropertyOp17
 70
     0
102
RTVSPropertyOp18
 70
     0
102
RTVSPropertyOp19
 70
     0
102
RTVSPropertyOp20
 70
     0
102
RTVSPropertyOp21
 70
     0
102
RTVSPropertyOp22
 70
     0
102
RTVSPropertyOp23
 70
     0
102
RTVSPropertyOp24
 70
     0
102
RTVSPropertyOp25
 70
     0
102
RTVSPropertyOp26
 70
     0
102
RTVSPropertyOp27
 70
     0
102
RTVSPropertyOp28
 70
     1
102
RTVSPropertyOp29
 70
     1
102
RTVSPropertyOp30
 70
     1
102
RTVSPropertyOp31
 70
     1
102
RTVSPropertyOp32
 70
     1
102
RTVSPropertyOp33
 70
     1
102
RTVSPropertyOp34
 70
     1
102
RTVSPropertyOp35
 70
     1
102
RTVSPropertyOp36
 70
     1
102
RTVSPropertyOp37
 70
     0
102
RTVSPropertyOp38
 70
     0
102
RTVSPropertyOp39
 70
     0
102
RTVSPropertyOp40
 70
     0
102
RTVSPropertyOp41
 70
     0
102
RTVSPropertyOp42
 70
     0
102
RTVSPropertyOp43
 70
     0
102
RTVSPropertyOp44
 70
     0
102
RTVSPropertyOp45
 70
     1
102
RTVSPropertyOp46
 70
     0
102
RTVSPropertyOp47
 70
     0
102
RTVSPropertyOp48
 70
     0
102
RTVSPropertyOp49
 70
     1
102
RTVSPropertyOp50
 70
     0
102
RTVSPropertyOp51
 70
     0
102
RTVSPropertyOp52
 70
     0
102
RTVSPropertyOp53
 70
     0
102
RTVSPropertyOp54
 70
     0
102
RTVSPropertyOp55
 70
     1
102
RTVSPropertyOp56
 70
     0
102
RTVSPropertyOp57
 70
     0
102
RTVSPropertyOp58
 70
     0
102
RTVSPropertyOp59
 70
     0
102
RTVSPropertyOp60
 70
     0
102
RTVSPropertyOp61
 70
     0
102
RTVSPropertyOp62
 70
     0
  0
XRECORD
  5
807D
102
{ACAD_REACTORS
330
807C
102
}
330
807C
100
AcDbXrecord
280
     1
102
RTVSPost2010Prop28
280
     0
102
RTVSPost2010PropOp28
 70
     1
102
RTVSPost2010Prop29
280
     1
102
RTVSPost2010PropOp29
 70
     1
102
RTVSPost2010Prop30
280
     1
102
RTVSPost2010PropOp30
 70
     1
102
RTVSPost2010Prop31
280
     0
102
RTVSPost2010PropOp31
 70
     1
102
RTVSPost2010Prop32
280
     0
102
RTVSPost2010PropOp32
 70
     1
102
RTVSPost2010Prop33
280
     0
102
RTVSPost2010PropOp33
 70
     1
102
RTVSPost2010Prop34
280
     0
102
RTVSPost2010PropOp34
 70
     1
102
RTVSPost2010Prop35
280
     0
102
RTVSPost2010PropOp35
 70
     1
102
RTVSPost2010Prop36
280
     0
102
RTVSPost2010PropOp36
 70
     1
102
RTVSPost2010Prop37
 90
       50
102
RTVSPost2010PropOp37
 70
     1
102
RTVSPost2010Prop38
140
0.0
102
RTVSPost2010PropOp38
 70
     1
102
RTVSPost2010Prop39
140
1.0
102
RTVSPost2010PropOp39
 70
     1
102
RTVSPost2010Prop40
 90
        0
102
RTVSPost2010PropOp40
 70
     1
102
RTVSPost2010Prop41ColorIndex
 90
       18
102
RTVSPost2010Prop41ColorRGB
 90
        0
102
RTVSPost2010PropOp41
 70
     1
102
RTVSPost2010Prop42
 90
       50
102
RTVSPost2010PropOp42
 70
     1
102
RTVSPost2010Prop43
 90
        3
102
RTVSPost2010PropOp43
 70
     1
102
RTVSPost2010Prop44ColorIndex
 90
        5
102
RTVSPost2010Prop44ColorRGB
 90
      255
102
RTVSPost2010PropOp44
 70
     1
102
RTVSPost2010Prop45
280
     0
102
RTVSPost2010PropOp45
 70
     1
102
RTVSPost2010Prop46
 90
       50
102
RTVSPost2010PropOp46
 70
     1
102
RTVSPost2010Prop47
 90
       50
102
RTVSPost2010PropOp47
 70
     1
102
RTVSPost2010Prop48
 90
       50
102
RTVSPost2010PropOp48
 70
     1
102
RTVSPost2010Prop49
280
     0
102
RTVSPost2010PropOp49
 70
     1
102
RTVSPost2010Prop50
 90
       50
102
RTVSPost2010PropOp50
 70
     1
102
RTVSPost2010Prop51ColorIndex
 90
      256
102
RTVSPost2010Prop51ColorRGB
 90
-16777216
102
RTVSPost2010PropOp51
 70
     0
102
RTVSPost2010Prop52
140
1.0
102
RTVSPost2010PropOp52
 70
     0
102
RTVSPost2010Prop53
 90
        2
102
RTVSPost2010PropOp53
 70
     1
102
RTVSPost2010Prop54
  1
strokes_ogs.tif
102
RTVSPost2010PropOp54
 70
     1
102
RTVSPost2010Prop55
280
     0
102
RTVSPost2010PropOp55
 70
     1
102
RTVSPost2010Prop56
140
1.0
102
RTVSPost2010PropOp56
 70
     1
102
RTVSPost2010Prop57
140
1.0
102
RTVSPost2010PropOp57
 70
     1
102
RTVSPropertyOp0
 70
     1
102
RTVSPropertyOp1
 70
     1
102
RTVSPropertyOp2
 70
     1
102
RTVSPropertyOp3
 70
     1
102
RTVSPropertyOp4
 70
     1
102
RTVSPropertyOp5
 70
     1
102
RTVSPropertyOp6
 70
     1
102
RTVSPropertyOp7
 70
     1
102
RTVSPropertyOp8
 70
     1
102
RTVSPropertyOp9
 70
     1
102
RTVSPropertyOp10
 70
     1
102
RTVSPropertyOp11
 70
     1
102
RTVSPropertyOp12
 70
     1
102
RTVSPropertyOp13
 70
     1
102
RTVSPropertyOp14
 70
     1
102
RTVSPropertyOp15
 70
     1
102
RTVSPropertyOp16
 70
     1
102
RTVSPropertyOp17
 70
     1
102
RTVSPropertyOp18
 70
     1
102
RTVSPropertyOp19
 70
     1
102
RTVSPropertyOp20
 70
     1
102
RTVSPropertyOp21
 70
     1
102
RTVSPropertyOp22
 70
     1
102
RTVSPropertyOp23
 70
     1
102
RTVSPropertyOp24
 70
     1
102
RTVSPropertyOp25
 70
     1
102
RTVSPropertyOp26
 70
     1
102
RTVSPropertyOp27
 70
     1
102
RTVSPropertyOp28
 70
     1
102
RTVSPropertyOp29
 70
     1
102
RTVSPropertyOp30
 70
     1
102
RTVSPropertyOp31
 70
     1
102
RTVSPropertyOp32
 70
     1
102
RTVSPropertyOp33
 70
     1
102
RTVSPropertyOp34
 70
     1
102
RTVSPropertyOp35
 70
     1
102
RTVSPropertyOp36
 70
     1
102
RTVSPropertyOp37
 70
     1
102
RTVSPropertyOp38
 70
     1
102
RTVSPropertyOp39
 70
     1
102
RTVSPropertyOp40
 70
     1
102
RTVSPropertyOp41
 70
     1
102
RTVSPropertyOp42
 70
     1
102
RTVSPropertyOp43
 70
     1
102
RTVSPropertyOp44
 70
     1
102
RTVSPropertyOp45
 70
     1
102
RTVSPropertyOp46
 70
     1
102
RTVSPropertyOp47
 70
     1
102
RTVSPropertyOp48
 70
     1
102
RTVSPropertyOp49
 70
     1
102
RTVSPropertyOp50
 70
     1
102
RTVSPropertyOp51
 70
     0
102
RTVSPropertyOp52
 70
     0
102
RTVSPropertyOp53
 70
     1
102
RTVSPropertyOp54
 70
     1
102
RTVSPropertyOp55
 70
     1
102
RTVSPropertyOp56
 70
     1
102
RTVSPropertyOp57
 70
     1
102
RTVSPropertyOp58
 70
     1
102
RTVSPropertyOp59
 70
     1
102
RTVSPropertyOp60
 70
     1
102
RTVSPropertyOp61
 70
     1
102
RTVSPropertyOp62
 70
     1
  0
XRECORD
  5
8093
102
{ACAD_REACTORS
330
8092
102
}
330
8092
100
AcDbXrecord
280
     1
102
RTVSPost2010Prop28
280
     0
102
RTVSPost2010PropOp28
 70
     1
102
RTVSPost2010Prop29
280
     1
102
RTVSPost2010PropOp29
 70
     1
102
RTVSPost2010Prop30
280
     1
102
RTVSPost2010PropOp30
 70
     1
102
RTVSPost2010Prop31
280
     0
102
RTVSPost2010PropOp31
 70
     1
102
RTVSPost2010Prop32
280
     0
102
RTVSPost2010PropOp32
 70
     1
102
RTVSPost2010Prop33
280
     0
102
RTVSPost2010PropOp33
 70
     1
102
RTVSPost2010Prop34
280
     0
102
RTVSPost2010PropOp34
 70
     1
102
RTVSPost2010Prop35
280
     0
102
RTVSPost2010PropOp35
 70
     1
102
RTVSPost2010Prop36
280
     0
102
RTVSPost2010PropOp36
 70
     1
102
RTVSPost2010Prop37
 90
       50
102
RTVSPost2010PropOp37
 70
     0
102
RTVSPost2010Prop38
140
0.0
102
RTVSPost2010PropOp38
 70
     0
102
RTVSPost2010Prop39
140
1.0
102
RTVSPost2010PropOp39
 70
     0
102
RTVSPost2010Prop40
 90
        0
102
RTVSPost2010PropOp40
 70
     0
102
RTVSPost2010Prop41ColorIndex
 90
       18
102
RTVSPost2010Prop41ColorRGB
 90
        0
102
RTVSPost2010PropOp41
 70
     0
102
RTVSPost2010Prop42
 90
       50
102
RTVSPost2010PropOp42
 70
     0
102
RTVSPost2010Prop43
 90
        3
102
RTVSPost2010PropOp43
 70
     0
102
RTVSPost2010Prop44ColorIndex
 90
        5
102
RTVSPost2010Prop44ColorRGB
 90
      255
102
RTVSPost2010PropOp44
 70
     0
102
RTVSPost2010Prop45
280
     0
102
RTVSPost2010PropOp45
 70
     1
102
RTVSPost2010Prop46
 90
       50
102
RTVSPost2010PropOp46
 70
     0
102
RTVSPost2010Prop47
 90
       50
102
RTVSPost2010PropOp47
 70
     0
102
RTVSPost2010Prop48
 90
       50
102
RTVSPost2010PropOp48
 70
     0
102
RTVSPost2010Prop49
280
     0
102
RTVSPost2010PropOp49
 70
     1
102
RTVSPost2010Prop50
 90
       50
102
RTVSPost2010PropOp50
 70
     0
102
RTVSPost2010Prop51ColorIndex
 90
      256
102
RTVSPost2010Prop51ColorRGB
 90
-16777216
102
RTVSPost2010PropOp51
 70
     0
102
RTVSPost2010Prop52
140
1.0
102
RTVSPost2010PropOp52
 70
     0
102
RTVSPost2010Prop53
 90
        2
102
RTVSPost2010PropOp53
 70
     0
102
RTVSPost2010Prop54
  1
strokes_ogs.tif
102
RTVSPost2010PropOp54
 70
     0
102
RTVSPost2010Prop55
280
     0
102
RTVSPost2010PropOp55
 70
     1
102
RTVSPost2010Prop56
140
1.0
102
RTVSPost2010PropOp56
 70
     0
102
RTVSPost2010Prop57
140
1.0
102
RTVSPost2010PropOp57
 70
     0
102
RTVSPropertyOp0
 70
     0
102
RTVSPropertyOp1
 70
     0
102
RTVSPropertyOp2
 70
     0
102
RTVSPropertyOp3
 70
     0
102
RTVSPropertyOp4
 70
     0
102
RTVSPropertyOp5
 70
     0
102
RTVSPropertyOp6
 70
     0
102
RTVSPropertyOp7
 70
     0
102
RTVSPropertyOp8
 70
     0
102
RTVSPropertyOp9
 70
     0
102
RTVSPropertyOp10
 70
     0
102
RTVSPropertyOp11
 70
     0
102
RTVSPropertyOp12
 70
     0
102
RTVSPropertyOp13
 70
     0
102
RTVSPropertyOp14
 70
     2
102
RTVSPropertyOp15
 70
     0
102
RTVSPropertyOp16
 70
     0
102
RTVSPropertyOp17
 70
     0
102
RTVSPropertyOp18
 70
     0
102
RTVSPropertyOp19
 70
     0
102
RTVSPropertyOp20
 70
     0
102
RTVSPropertyOp21
 70
     0
102
RTVSPropertyOp22
 70
     0
102
RTVSPropertyOp23
 70
     0
102
RTVSPropertyOp24
 70
     0
102
RTVSPropertyOp25
 70
     0
102
RTVSPropertyOp26
 70
     0
102
RTVSPropertyOp27
 70
     0
102
RTVSPropertyOp28
 70
     1
102
RTVSPropertyOp29
 70
     1
102
RTVSPropertyOp30
 70
     1
102
RTVSPropertyOp31
 70
     1
102
RTVSPropertyOp32
 70
     1
102
RTVSPropertyOp33
 70
     1
102
RTVSPropertyOp34
 70
     1
102
RTVSPropertyOp35
 70
     1
102
RTVSPropertyOp36
 70
     1
102
RTVSPropertyOp37
 70
     0
102
RTVSPropertyOp38
 70
     0
102
RTVSPropertyOp39
 70
     0
102
RTVSPropertyOp40
 70
     0
102
RTVSPropertyOp41
 70
     0
102
RTVSPropertyOp42
 70
     0
102
RTVSPropertyOp43
 70
     0
102
RTVSPropertyOp44
 70
     0
102
RTVSPropertyOp45
 70
     1
102
RTVSPropertyOp46
 70
     0
102
RTVSPropertyOp47
 70
     0
102
RTVSPropertyOp48
 70
     0
102
RTVSPropertyOp49
 70
     1
102
RTVSPropertyOp50
 70
     0
102
RTVSPropertyOp51
 70
     0
102
RTVSPropertyOp52
 70
     0
102
RTVSPropertyOp53
 70
     0
102
RTVSPropertyOp54
 70
     0
102
RTVSPropertyOp55
 70
     1
102
RTVSPropertyOp56
 70
     0
102
RTVSPropertyOp57
 70
     0
102
RTVSPropertyOp58
 70
     0
102
RTVSPropertyOp59
 70
     0
102
RTVSPropertyOp60
 70
     0
102
RTVSPropertyOp61
 70
     0
102
RTVSPropertyOp62
 70
     0
  0
XRECORD
  5
8075
102
{ACAD_REACTORS
330
8074
102
}
330
8074
100
AcDbXrecord
280
     1
102
RTVSPost2010Prop28
280
     0
102
RTVSPost2010PropOp28
 70
     1
102
RTVSPost2010Prop29
280
     1
102
RTVSPost2010PropOp29
 70
     1
102
RTVSPost2010Prop30
280
     1
102
RTVSPost2010PropOp30
 70
     1
102
RTVSPost2010Prop31
280
     0
102
RTVSPost2010PropOp31
 70
     1
102
RTVSPost2010Prop32
280
     0
102
RTVSPost2010PropOp32
 70
     1
102
RTVSPost2010Prop33
280
     0
102
RTVSPost2010PropOp33
 70
     1
102
RTVSPost2010Prop34
280
     0
102
RTVSPost2010PropOp34
 70
     1
102
RTVSPost2010Prop35
280
     0
102
RTVSPost2010PropOp35
 70
     1
102
RTVSPost2010Prop36
280
     0
102
RTVSPost2010PropOp36
 70
     1
102
RTVSPost2010Prop37
 90
       50
102
RTVSPost2010PropOp37
 70
     1
102
RTVSPost2010Prop38
140
0.0
102
RTVSPost2010PropOp38
 70
     1
102
RTVSPost2010Prop39
140
1.0
102
RTVSPost2010PropOp39
 70
     1
102
RTVSPost2010Prop40
 90
        0
102
RTVSPost2010PropOp40
 70
     1
102
RTVSPost2010Prop41ColorIndex
 90
       18
102
RTVSPost2010Prop41ColorRGB
 90
        0
102
RTVSPost2010PropOp41
 70
     1
102
RTVSPost2010Prop42
 90
       50
102
RTVSPost2010PropOp42
 70
     1
102
RTVSPost2010Prop43
 90
        3
102
RTVSPost2010PropOp43
 70
     1
102
RTVSPost2010Prop44ColorIndex
 90
        5
102
RTVSPost2010Prop44ColorRGB
 90
      255
102
RTVSPost2010PropOp44
 70
     1
102
RTVSPost2010Prop45
280
     0
102
RTVSPost2010PropOp45
 70
     1
102
RTVSPost2010Prop46
 90
       50
102
RTVSPost2010PropOp46
 70
     1
102
RTVSPost2010Prop47
 90
       50
102
RTVSPost2010PropOp47
 70
     1
102
RTVSPost2010Prop48
 90
       50
102
RTVSPost2010PropOp48
 70
     1
102
RTVSPost2010Prop49
280
     0
102
RTVSPost2010PropOp49
 70
     1
102
RTVSPost2010Prop50
 90
       50
102
RTVSPost2010PropOp50
 70
     1
102
RTVSPost2010Prop51ColorIndex
 90
      256
102
RTVSPost2010Prop51ColorRGB
 90
-16777216
102
RTVSPost2010PropOp51
 70
     0
102
RTVSPost2010Prop52
140
1.0
102
RTVSPost2010PropOp52
 70
     0
102
RTVSPost2010Prop53
 90
        2
102
RTVSPost2010PropOp53
 70
     1
102
RTVSPost2010Prop54
  1
strokes_ogs.tif
102
RTVSPost2010PropOp54
 70
     1
102
RTVSPost2010Prop55
280
     0
102
RTVSPost2010PropOp55
 70
     1
102
RTVSPost2010Prop56
140
1.0
102
RTVSPost2010PropOp56
 70
     1
102
RTVSPost2010Prop57
140
1.0
102
RTVSPost2010PropOp57
 70
     1
102
RTVSPropertyOp0
 70
     1
102
RTVSPropertyOp1
 70
     1
102
RTVSPropertyOp2
 70
     1
102
RTVSPropertyOp3
 70
     1
102
RTVSPropertyOp4
 70
     1
102
RTVSPropertyOp5
 70
     1
102
RTVSPropertyOp6
 70
     1
102
RTVSPropertyOp7
 70
     1
102
RTVSPropertyOp8
 70
     1
102
RTVSPropertyOp9
 70
     1
102
RTVSPropertyOp10
 70
     1
102
RTVSPropertyOp11
 70
     1
102
RTVSPropertyOp12
 70
     1
102
RTVSPropertyOp13
 70
     1
102
RTVSPropertyOp14
 70
     1
102
RTVSPropertyOp15
 70
     1
102
RTVSPropertyOp16
 70
     1
102
RTVSPropertyOp17
 70
     1
102
RTVSPropertyOp18
 70
     1
102
RTVSPropertyOp19
 70
     1
102
RTVSPropertyOp20
 70
     1
102
RTVSPropertyOp21
 70
     1
102
RTVSPropertyOp22
 70
     1
102
RTVSPropertyOp23
 70
     1
102
RTVSPropertyOp24
 70
     1
102
RTVSPropertyOp25
 70
     1
102
RTVSPropertyOp26
 70
     1
102
RTVSPropertyOp27
 70
     1
102
RTVSPropertyOp28
 70
     1
102
RTVSPropertyOp29
 70
     1
102
RTVSPropertyOp30
 70
     1
102
RTVSPropertyOp31
 70
     1
102
RTVSPropertyOp32
 70
     1
102
RTVSPropertyOp33
 70
     1
102
RTVSPropertyOp34
 70
     1
102
RTVSPropertyOp35
 70
     1
102
RTVSPropertyOp36
 70
     1
102
RTVSPropertyOp37
 70
     1
102
RTVSPropertyOp38
 70
     1
102
RTVSPropertyOp39
 70
     1
102
RTVSPropertyOp40
 70
     1
102
RTVSPropertyOp41
 70
     1
102
RTVSPropertyOp42
 70
     1
102
RTVSPropertyOp43
 70
     1
102
RTVSPropertyOp44
 70
     1
102
RTVSPropertyOp45
 70
     1
102
RTVSPropertyOp46
 70
     1
102
RTVSPropertyOp47
 70
     1
102
RTVSPropertyOp48
 70
     1
102
RTVSPropertyOp49
 70
     1
102
RTVSPropertyOp50
 70
     1
102
RTVSPropertyOp51
 70
     0
102
RTVSPropertyOp52
 70
     0
102
RTVSPropertyOp53
 70
     1
102
RTVSPropertyOp54
 70
     1
102
RTVSPropertyOp55
 70
     1
102
RTVSPropertyOp56
 70
     1
102
RTVSPropertyOp57
 70
     1
102
RTVSPropertyOp58
 70
     1
102
RTVSPropertyOp59
 70
     1
102
RTVSPropertyOp60
 70
     1
102
RTVSPropertyOp61
 70
     1
102
RTVSPropertyOp62
 70
     1
  0
XRECORD
  5
808F
102
{ACAD_REACTORS
330
808E
102
}
330
808E
100
AcDbXrecord
280
     1
102
RTVSPost2010Prop28
280
     0
102
RTVSPost2010PropOp28
 70
     1
102
RTVSPost2010Prop29
280
     1
102
RTVSPost2010PropOp29
 70
     1
102
RTVSPost2010Prop30
280
     1
102
RTVSPost2010PropOp30
 70
     1
102
RTVSPost2010Prop31
280
     0
102
RTVSPost2010PropOp31
 70
     1
102
RTVSPost2010Prop32
280
     0
102
RTVSPost2010PropOp32
 70
     1
102
RTVSPost2010Prop33
280
     0
102
RTVSPost2010PropOp33
 70
     1
102
RTVSPost2010Prop34
280
     0
102
RTVSPost2010PropOp34
 70
     1
102
RTVSPost2010Prop35
280
     0
102
RTVSPost2010PropOp35
 70
     1
102
RTVSPost2010Prop36
280
     0
102
RTVSPost2010PropOp36
 70
     1
102
RTVSPost2010Prop37
 90
       50
102
RTVSPost2010PropOp37
 70
     1
102
RTVSPost2010Prop38
140
0.0
102
RTVSPost2010PropOp38
 70
     1
102
RTVSPost2010Prop39
140
1.0
102
RTVSPost2010PropOp39
 70
     1
102
RTVSPost2010Prop40
 90
        0
102
RTVSPost2010PropOp40
 70
     1
102
RTVSPost2010Prop41ColorIndex
 90
       18
102
RTVSPost2010Prop41ColorRGB
 90
        0
102
RTVSPost2010PropOp41
 70
     1
102
RTVSPost2010Prop42
 90
       50
102
RTVSPost2010PropOp42
 70
     1
102
RTVSPost2010Prop43
 90
        3
102
RTVSPost2010PropOp43
 70
     1
102
RTVSPost2010Prop44ColorIndex
 90
        5
102
RTVSPost2010Prop44ColorRGB
 90
      255
102
RTVSPost2010PropOp44
 70
     1
102
RTVSPost2010Prop45
280
     0
102
RTVSPost2010PropOp45
 70
     1
102
RTVSPost2010Prop46
 90
       50
102
RTVSPost2010PropOp46
 70
     1
102
RTVSPost2010Prop47
 90
       50
102
RTVSPost2010PropOp47
 70
     1
102
RTVSPost2010Prop48
 90
       50
102
RTVSPost2010PropOp48
 70
     1
102
RTVSPost2010Prop49
280
     0
102
RTVSPost2010PropOp49
 70
     1
102
RTVSPost2010Prop50
 90
       50
102
RTVSPost2010PropOp50
 70
     1
102
RTVSPost2010Prop51ColorIndex
 90
      256
102
RTVSPost2010Prop51ColorRGB
 90
-16777216
102
RTVSPost2010PropOp51
 70
     0
102
RTVSPost2010Prop52
140
1.0
102
RTVSPost2010PropOp52
 70
     0
102
RTVSPost2010Prop53
 90
        2
102
RTVSPost2010PropOp53
 70
     1
102
RTVSPost2010Prop54
  1
strokes_ogs.tif
102
RTVSPost2010PropOp54
 70
     1
102
RTVSPost2010Prop55
280
     0
102
RTVSPost2010PropOp55
 70
     1
102
RTVSPost2010Prop56
140
1.0
102
RTVSPost2010PropOp56
 70
     1
102
RTVSPost2010Prop57
140
1.0
102
RTVSPost2010PropOp57
 70
     1
102
RTVSPropertyOp0
 70
     1
102
RTVSPropertyOp1
 70
     1
102
RTVSPropertyOp2
 70
     1
102
RTVSPropertyOp3
 70
     1
102
RTVSPropertyOp4
 70
     1
102
RTVSPropertyOp5
 70
     1
102
RTVSPropertyOp6
 70
     1
102
RTVSPropertyOp7
 70
     1
102
RTVSPropertyOp8
 70
     1
102
RTVSPropertyOp9
 70
     1
102
RTVSPropertyOp10
 70
     1
102
RTVSPropertyOp11
 70
     1
102
RTVSPropertyOp12
 70
     1
102
RTVSPropertyOp13
 70
     1
102
RTVSPropertyOp14
 70
     1
102
RTVSPropertyOp15
 70
     1
102
RTVSPropertyOp16
 70
     1
102
RTVSPropertyOp17
 70
     1
102
RTVSPropertyOp18
 70
     1
102
RTVSPropertyOp19
 70
     1
102
RTVSPropertyOp20
 70
     1
102
RTVSPropertyOp21
 70
     1
102
RTVSPropertyOp22
 70
     1
102
RTVSPropertyOp23
 70
     1
102
RTVSPropertyOp24
 70
     1
102
RTVSPropertyOp25
 70
     1
102
RTVSPropertyOp26
 70
     1
102
RTVSPropertyOp27
 70
     1
102
RTVSPropertyOp28
 70
     1
102
RTVSPropertyOp29
 70
     1
102
RTVSPropertyOp30
 70
     1
102
RTVSPropertyOp31
 70
     1
102
RTVSPropertyOp32
 70
     1
102
RTVSPropertyOp33
 70
     1
102
RTVSPropertyOp34
 70
     1
102
RTVSPropertyOp35
 70
     1
102
RTVSPropertyOp36
 70
     1
102
RTVSPropertyOp37
 70
     1
102
RTVSPropertyOp38
 70
     1
102
RTVSPropertyOp39
 70
     1
102
RTVSPropertyOp40
 70
     1
102
RTVSPropertyOp41
 70
     1
102
RTVSPropertyOp42
 70
     1
102
RTVSPropertyOp43
 70
     1
102
RTVSPropertyOp44
 70
     1
102
RTVSPropertyOp45
 70
     1
102
RTVSPropertyOp46
 70
     1
102
RTVSPropertyOp47
 70
     1
102
RTVSPropertyOp48
 70
     1
102
RTVSPropertyOp49
 70
     1
102
RTVSPropertyOp50
 70
     1
102
RTVSPropertyOp51
 70
     0
102
RTVSPropertyOp52
 70
     0
102
RTVSPropertyOp53
 70
     1
102
RTVSPropertyOp54
 70
     1
102
RTVSPropertyOp55
 70
     1
102
RTVSPropertyOp56
 70
     1
102
RTVSPropertyOp57
 70
     1
102
RTVSPropertyOp58
 70
     1
102
RTVSPropertyOp59
 70
     1
102
RTVSPropertyOp60
 70
     1
102
RTVSPropertyOp61
 70
     1
102
RTVSPropertyOp62
 70
     1
  0
XRECORD
  5
808D
102
{ACAD_REACTORS
330
808C
102
}
330
808C
100
AcDbXrecord
280
     1
102
RTVSPost2010Prop28
280
     0
102
RTVSPost2010PropOp28
 70
     1
102
RTVSPost2010Prop29
280
     1
102
RTVSPost2010PropOp29
 70
     1
102
RTVSPost2010Prop30
280
     1
102
RTVSPost2010PropOp30
 70
     1
102
RTVSPost2010Prop31
280
     0
102
RTVSPost2010PropOp31
 70
     1
102
RTVSPost2010Prop32
280
     0
102
RTVSPost2010PropOp32
 70
     1
102
RTVSPost2010Prop33
280
     0
102
RTVSPost2010PropOp33
 70
     1
102
RTVSPost2010Prop34
280
     0
102
RTVSPost2010PropOp34
 70
     1
102
RTVSPost2010Prop35
280
     0
102
RTVSPost2010PropOp35
 70
     1
102
RTVSPost2010Prop36
280
     0
102
RTVSPost2010PropOp36
 70
     1
102
RTVSPost2010Prop37
 90
       50
102
RTVSPost2010PropOp37
 70
     1
102
RTVSPost2010Prop38
140
0.0
102
RTVSPost2010PropOp38
 70
     1
102
RTVSPost2010Prop39
140
1.0
102
RTVSPost2010PropOp39
 70
     1
102
RTVSPost2010Prop40
 90
        0
102
RTVSPost2010PropOp40
 70
     1
102
RTVSPost2010Prop41ColorIndex
 90
       18
102
RTVSPost2010Prop41ColorRGB
 90
        0
102
RTVSPost2010PropOp41
 70
     1
102
RTVSPost2010Prop42
 90
       50
102
RTVSPost2010PropOp42
 70
     1
102
RTVSPost2010Prop43
 90
        3
102
RTVSPost2010PropOp43
 70
     1
102
RTVSPost2010Prop44ColorIndex
 90
        5
102
RTVSPost2010Prop44ColorRGB
 90
      255
102
RTVSPost2010PropOp44
 70
     1
102
RTVSPost2010Prop45
280
     0
102
RTVSPost2010PropOp45
 70
     1
102
RTVSPost2010Prop46
 90
       50
102
RTVSPost2010PropOp46
 70
     1
102
RTVSPost2010Prop47
 90
       50
102
RTVSPost2010PropOp47
 70
     1
102
RTVSPost2010Prop48
 90
       50
102
RTVSPost2010PropOp48
 70
     1
102
RTVSPost2010Prop49
280
     0
102
RTVSPost2010PropOp49
 70
     1
102
RTVSPost2010Prop50
 90
       50
102
RTVSPost2010PropOp50
 70
     1
102
RTVSPost2010Prop51ColorIndex
 90
      256
102
RTVSPost2010Prop51ColorRGB
 90
-16777216
102
RTVSPost2010PropOp51
 70
     0
102
RTVSPost2010Prop52
140
1.0
102
RTVSPost2010PropOp52
 70
     0
102
RTVSPost2010Prop53
 90
        2
102
RTVSPost2010PropOp53
 70
     1
102
RTVSPost2010Prop54
  1
strokes_ogs.tif
102
RTVSPost2010PropOp54
 70
     1
102
RTVSPost2010Prop55
280
     0
102
RTVSPost2010PropOp55
 70
     1
102
RTVSPost2010Prop56
140
1.0
102
RTVSPost2010PropOp56
 70
     1
102
RTVSPost2010Prop57
140
1.0
102
RTVSPost2010PropOp57
 70
     1
102
RTVSPropertyOp0
 70
     1
102
RTVSPropertyOp1
 70
     1
102
RTVSPropertyOp2
 70
     1
102
RTVSPropertyOp3
 70
     1
102
RTVSPropertyOp4
 70
     1
102
RTVSPropertyOp5
 70
     1
102
RTVSPropertyOp6
 70
     1
102
RTVSPropertyOp7
 70
     1
102
RTVSPropertyOp8
 70
     1
102
RTVSPropertyOp9
 70
     1
102
RTVSPropertyOp10
 70
     1
102
RTVSPropertyOp11
 70
     1
102
RTVSPropertyOp12
 70
     1
102
RTVSPropertyOp13
 70
     1
102
RTVSPropertyOp14
 70
     1
102
RTVSPropertyOp15
 70
     1
102
RTVSPropertyOp16
 70
     1
102
RTVSPropertyOp17
 70
     1
102
RTVSPropertyOp18
 70
     1
102
RTVSPropertyOp19
 70
     1
102
RTVSPropertyOp20
 70
     1
102
RTVSPropertyOp21
 70
     1
102
RTVSPropertyOp22
 70
     1
102
RTVSPropertyOp23
 70
     1
102
RTVSPropertyOp24
 70
     1
102
RTVSPropertyOp25
 70
     1
102
RTVSPropertyOp26
 70
     1
102
RTVSPropertyOp27
 70
     1
102
RTVSPropertyOp28
 70
     1
102
RTVSPropertyOp29
 70
     1
102
RTVSPropertyOp30
 70
     1
102
RTVSPropertyOp31
 70
     1
102
RTVSPropertyOp32
 70
     1
102
RTVSPropertyOp33
 70
     1
102
RTVSPropertyOp34
 70
     1
102
RTVSPropertyOp35
 70
     1
102
RTVSPropertyOp36
 70
     1
102
RTVSPropertyOp37
 70
     1
102
RTVSPropertyOp38
 70
     1
102
RTVSPropertyOp39
 70
     1
102
RTVSPropertyOp40
 70
     1
102
RTVSPropertyOp41
 70
     1
102
RTVSPropertyOp42
 70
     1
102
RTVSPropertyOp43
 70
     1
102
RTVSPropertyOp44
 70
     1
102
RTVSPropertyOp45
 70
     1
102
RTVSPropertyOp46
 70
     1
102
RTVSPropertyOp47
 70
     1
102
RTVSPropertyOp48
 70
     1
102
RTVSPropertyOp49
 70
     1
102
RTVSPropertyOp50
 70
     1
102
RTVSPropertyOp51
 70
     0
102
RTVSPropertyOp52
 70
     0
102
RTVSPropertyOp53
 70
     1
102
RTVSPropertyOp54
 70
     1
102
RTVSPropertyOp55
 70
     1
102
RTVSPropertyOp56
 70
     1
102
RTVSPropertyOp57
 70
     1
102
RTVSPropertyOp58
 70
     1
102
RTVSPropertyOp59
 70
     1
102
RTVSPropertyOp60
 70
     1
102
RTVSPropertyOp61
 70
     1
102
RTVSPropertyOp62
 70
     1
  0
XRECORD
  5
8087
102
{ACAD_REACTORS
330
8086
102
}
330
8086
100
AcDbXrecord
280
     1
102
RTVSPost2010Prop28
280
     0
102
RTVSPost2010PropOp28
 70
     1
102
RTVSPost2010Prop29
280
     1
102
RTVSPost2010PropOp29
 70
     1
102
RTVSPost2010Prop30
280
     1
102
RTVSPost2010PropOp30
 70
     1
102
RTVSPost2010Prop31
280
     0
102
RTVSPost2010PropOp31
 70
     1
102
RTVSPost2010Prop32
280
     0
102
RTVSPost2010PropOp32
 70
     1
102
RTVSPost2010Prop33
280
     0
102
RTVSPost2010PropOp33
 70
     1
102
RTVSPost2010Prop34
280
     0
102
RTVSPost2010PropOp34
 70
     1
102
RTVSPost2010Prop35
280
     0
102
RTVSPost2010PropOp35
 70
     1
102
RTVSPost2010Prop36
280
     0
102
RTVSPost2010PropOp36
 70
     1
102
RTVSPost2010Prop37
 90
       50
102
RTVSPost2010PropOp37
 70
     1
102
RTVSPost2010Prop38
140
0.0
102
RTVSPost2010PropOp38
 70
     1
102
RTVSPost2010Prop39
140
1.0
102
RTVSPost2010PropOp39
 70
     1
102
RTVSPost2010Prop40
 90
        0
102
RTVSPost2010PropOp40
 70
     1
102
RTVSPost2010Prop41ColorIndex
 90
       18
102
RTVSPost2010Prop41ColorRGB
 90
        0
102
RTVSPost2010PropOp41
 70
     1
102
RTVSPost2010Prop42
 90
       50
102
RTVSPost2010PropOp42
 70
     1
102
RTVSPost2010Prop43
 90
        3
102
RTVSPost2010PropOp43
 70
     1
102
RTVSPost2010Prop44ColorIndex
 90
        5
102
RTVSPost2010Prop44ColorRGB
 90
      255
102
RTVSPost2010PropOp44
 70
     1
102
RTVSPost2010Prop45
280
     0
102
RTVSPost2010PropOp45
 70
     1
102
RTVSPost2010Prop46
 90
       50
102
RTVSPost2010PropOp46
 70
     1
102
RTVSPost2010Prop47
 90
       50
102
RTVSPost2010PropOp47
 70
     1
102
RTVSPost2010Prop48
 90
       50
102
RTVSPost2010PropOp48
 70
     1
102
RTVSPost2010Prop49
280
     0
102
RTVSPost2010PropOp49
 70
     1
102
RTVSPost2010Prop50
 90
       50
102
RTVSPost2010PropOp50
 70
     1
102
RTVSPost2010Prop51ColorIndex
 90
      256
102
RTVSPost2010Prop51ColorRGB
 90
-16777216
102
RTVSPost2010PropOp51
 70
     0
102
RTVSPost2010Prop52
140
1.0
102
RTVSPost2010PropOp52
 70
     0
102
RTVSPost2010Prop53
 90
        2
102
RTVSPost2010PropOp53
 70
     1
102
RTVSPost2010Prop54
  1
strokes_ogs.tif
102
RTVSPost2010PropOp54
 70
     1
102
RTVSPost2010Prop55
280
     0
102
RTVSPost2010PropOp55
 70
     1
102
RTVSPost2010Prop56
140
1.0
102
RTVSPost2010PropOp56
 70
     1
102
RTVSPost2010Prop57
140
1.0
102
RTVSPost2010PropOp57
 70
     1
102
RTVSPropertyOp0
 70
     1
102
RTVSPropertyOp1
 70
     1
102
RTVSPropertyOp2
 70
     1
102
RTVSPropertyOp3
 70
     1
102
RTVSPropertyOp4
 70
     1
102
RTVSPropertyOp5
 70
     1
102
RTVSPropertyOp6
 70
     1
102
RTVSPropertyOp7
 70
     1
102
RTVSPropertyOp8
 70
     1
102
RTVSPropertyOp9
 70
     1
102
RTVSPropertyOp10
 70
     1
102
RTVSPropertyOp11
 70
     1
102
RTVSPropertyOp12
 70
     1
102
RTVSPropertyOp13
 70
     1
102
RTVSPropertyOp14
 70
     1
102
RTVSPropertyOp15
 70
     1
102
RTVSPropertyOp16
 70
     1
102
RTVSPropertyOp17
 70
     1
102
RTVSPropertyOp18
 70
     1
102
RTVSPropertyOp19
 70
     1
102
RTVSPropertyOp20
 70
     1
102
RTVSPropertyOp21
 70
     1
102
RTVSPropertyOp22
 70
     1
102
RTVSPropertyOp23
 70
     1
102
RTVSPropertyOp24
 70
     1
102
RTVSPropertyOp25
 70
     1
102
RTVSPropertyOp26
 70
     1
102
RTVSPropertyOp27
 70
     1
102
RTVSPropertyOp28
 70
     1
102
RTVSPropertyOp29
 70
     1
102
RTVSPropertyOp30
 70
     1
102
RTVSPropertyOp31
 70
     1
102
RTVSPropertyOp32
 70
     1
102
RTVSPropertyOp33
 70
     1
102
RTVSPropertyOp34
 70
     1
102
RTVSPropertyOp35
 70
     1
102
RTVSPropertyOp36
 70
     1
102
RTVSPropertyOp37
 70
     1
102
RTVSPropertyOp38
 70
     1
102
RTVSPropertyOp39
 70
     1
102
RTVSPropertyOp40
 70
     1
102
RTVSPropertyOp41
 70
     1
102
RTVSPropertyOp42
 70
     1
102
RTVSPropertyOp43
 70
     1
102
RTVSPropertyOp44
 70
     1
102
RTVSPropertyOp45
 70
     1
102
RTVSPropertyOp46
 70
     1
102
RTVSPropertyOp47
 70
     1
102
RTVSPropertyOp48
 70
     1
102
RTVSPropertyOp49
 70
     1
102
RTVSPropertyOp50
 70
     1
102
RTVSPropertyOp51
 70
     0
102
RTVSPropertyOp52
 70
     0
102
RTVSPropertyOp53
 70
     1
102
RTVSPropertyOp54
 70
     1
102
RTVSPropertyOp55
 70
     1
102
RTVSPropertyOp56
 70
     1
102
RTVSPropertyOp57
 70
     1
102
RTVSPropertyOp58
 70
     1
102
RTVSPropertyOp59
 70
     1
102
RTVSPropertyOp60
 70
     1
102
RTVSPropertyOp61
 70
     1
102
RTVSPropertyOp62
 70
     1
  0
XRECORD
  5
8089
102
{ACAD_REACTORS
330
8088
102
}
330
8088
100
AcDbXrecord
280
     1
102
RTVSPost2010Prop28
280
     0
102
RTVSPost2010PropOp28
 70
     1
102
RTVSPost2010Prop29
280
     1
102
RTVSPost2010PropOp29
 70
     1
102
RTVSPost2010Prop30
280
     1
102
RTVSPost2010PropOp30
 70
     1
102
RTVSPost2010Prop31
280
     0
102
RTVSPost2010PropOp31
 70
     1
102
RTVSPost2010Prop32
280
     0
102
RTVSPost2010PropOp32
 70
     1
102
RTVSPost2010Prop33
280
     0
102
RTVSPost2010PropOp33
 70
     1
102
RTVSPost2010Prop34
280
     0
102
RTVSPost2010PropOp34
 70
     1
102
RTVSPost2010Prop35
280
     0
102
RTVSPost2010PropOp35
 70
     1
102
RTVSPost2010Prop36
280
     0
102
RTVSPost2010PropOp36
 70
     1
102
RTVSPost2010Prop37
 90
       50
102
RTVSPost2010PropOp37
 70
     1
102
RTVSPost2010Prop38
140
0.0
102
RTVSPost2010PropOp38
 70
     1
102
RTVSPost2010Prop39
140
1.0
102
RTVSPost2010PropOp39
 70
     1
102
RTVSPost2010Prop40
 90
        0
102
RTVSPost2010PropOp40
 70
     1
102
RTVSPost2010Prop41ColorIndex
 90
       18
102
RTVSPost2010Prop41ColorRGB
 90
        0
102
RTVSPost2010PropOp41
 70
     1
102
RTVSPost2010Prop42
 90
       50
102
RTVSPost2010PropOp42
 70
     1
102
RTVSPost2010Prop43
 90
        3
102
RTVSPost2010PropOp43
 70
     1
102
RTVSPost2010Prop44ColorIndex
 90
        5
102
RTVSPost2010Prop44ColorRGB
 90
      255
102
RTVSPost2010PropOp44
 70
     1
102
RTVSPost2010Prop45
280
     0
102
RTVSPost2010PropOp45
 70
     1
102
RTVSPost2010Prop46
 90
       50
102
RTVSPost2010PropOp46
 70
     1
102
RTVSPost2010Prop47
 90
       50
102
RTVSPost2010PropOp47
 70
     1
102
RTVSPost2010Prop48
 90
       50
102
RTVSPost2010PropOp48
 70
     1
102
RTVSPost2010Prop49
280
     0
102
RTVSPost2010PropOp49
 70
     1
102
RTVSPost2010Prop50
 90
       50
102
RTVSPost2010PropOp50
 70
     1
102
RTVSPost2010Prop51ColorIndex
 90
      256
102
RTVSPost2010Prop51ColorRGB
 90
-16777216
102
RTVSPost2010PropOp51
 70
     0
102
RTVSPost2010Prop52
140
1.0
102
RTVSPost2010PropOp52
 70
     0
102
RTVSPost2010Prop53
 90
        2
102
RTVSPost2010PropOp53
 70
     1
102
RTVSPost2010Prop54
  1
strokes_ogs.tif
102
RTVSPost2010PropOp54
 70
     1
102
RTVSPost2010Prop55
280
     0
102
RTVSPost2010PropOp55
 70
     1
102
RTVSPost2010Prop56
140
1.0
102
RTVSPost2010PropOp56
 70
     1
102
RTVSPost2010Prop57
140
1.0
102
RTVSPost2010PropOp57
 70
     1
102
RTVSPropertyOp0
 70
     1
102
RTVSPropertyOp1
 70
     1
102
RTVSPropertyOp2
 70
     1
102
RTVSPropertyOp3
 70
     1
102
RTVSPropertyOp4
 70
     1
102
RTVSPropertyOp5
 70
     1
102
RTVSPropertyOp6
 70
     1
102
RTVSPropertyOp7
 70
     1
102
RTVSPropertyOp8
 70
     1
102
RTVSPropertyOp9
 70
     1
102
RTVSPropertyOp10
 70
     1
102
RTVSPropertyOp11
 70
     1
102
RTVSPropertyOp12
 70
     1
102
RTVSPropertyOp13
 70
     1
102
RTVSPropertyOp14
 70
     1
102
RTVSPropertyOp15
 70
     1
102
RTVSPropertyOp16
 70
     1
102
RTVSPropertyOp17
 70
     1
102
RTVSPropertyOp18
 70
     1
102
RTVSPropertyOp19
 70
     1
102
RTVSPropertyOp20
 70
     1
102
RTVSPropertyOp21
 70
     1
102
RTVSPropertyOp22
 70
     1
102
RTVSPropertyOp23
 70
     1
102
RTVSPropertyOp24
 70
     1
102
RTVSPropertyOp25
 70
     1
102
RTVSPropertyOp26
 70
     1
102
RTVSPropertyOp27
 70
     1
102
RTVSPropertyOp28
 70
     1
102
RTVSPropertyOp29
 70
     1
102
RTVSPropertyOp30
 70
     1
102
RTVSPropertyOp31
 70
     1
102
RTVSPropertyOp32
 70
     1
102
RTVSPropertyOp33
 70
     1
102
RTVSPropertyOp34
 70
     1
102
RTVSPropertyOp35
 70
     1
102
RTVSPropertyOp36
 70
     1
102
RTVSPropertyOp37
 70
     1
102
RTVSPropertyOp38
 70
     1
102
RTVSPropertyOp39
 70
     1
102
RTVSPropertyOp40
 70
     1
102
RTVSPropertyOp41
 70
     1
102
RTVSPropertyOp42
 70
     1
102
RTVSPropertyOp43
 70
     1
102
RTVSPropertyOp44
 70
     1
102
RTVSPropertyOp45
 70
     1
102
RTVSPropertyOp46
 70
     1
102
RTVSPropertyOp47
 70
     1
102
RTVSPropertyOp48
 70
     1
102
RTVSPropertyOp49
 70
     1
102
RTVSPropertyOp50
 70
     1
102
RTVSPropertyOp51
 70
     0
102
RTVSPropertyOp52
 70
     0
102
RTVSPropertyOp53
 70
     1
102
RTVSPropertyOp54
 70
     1
102
RTVSPropertyOp55
 70
     1
102
RTVSPropertyOp56
 70
     1
102
RTVSPropertyOp57
 70
     1
102
RTVSPropertyOp58
 70
     1
102
RTVSPropertyOp59
 70
     1
102
RTVSPropertyOp60
 70
     1
102
RTVSPropertyOp61
 70
     1
102
RTVSPropertyOp62
 70
     1
  0
XRECORD
  5
807B
102
{ACAD_REACTORS
330
807A
102
}
330
807A
100
AcDbXrecord
280
     1
102
RTVSPost2010Prop28
280
     0
102
RTVSPost2010PropOp28
 70
     1
102
RTVSPost2010Prop29
280
     1
102
RTVSPost2010PropOp29
 70
     1
102
RTVSPost2010Prop30
280
     1
102
RTVSPost2010PropOp30
 70
     1
102
RTVSPost2010Prop31
280
     0
102
RTVSPost2010PropOp31
 70
     1
102
RTVSPost2010Prop32
280
     0
102
RTVSPost2010PropOp32
 70
     1
102
RTVSPost2010Prop33
280
     0
102
RTVSPost2010PropOp33
 70
     1
102
RTVSPost2010Prop34
280
     0
102
RTVSPost2010PropOp34
 70
     1
102
RTVSPost2010Prop35
280
     0
102
RTVSPost2010PropOp35
 70
     1
102
RTVSPost2010Prop36
280
     0
102
RTVSPost2010PropOp36
 70
     1
102
RTVSPost2010Prop37
 90
       50
102
RTVSPost2010PropOp37
 70
     1
102
RTVSPost2010Prop38
140
0.0
102
RTVSPost2010PropOp38
 70
     1
102
RTVSPost2010Prop39
140
1.0
102
RTVSPost2010PropOp39
 70
     1
102
RTVSPost2010Prop40
 90
        0
102
RTVSPost2010PropOp40
 70
     1
102
RTVSPost2010Prop41ColorIndex
 90
       18
102
RTVSPost2010Prop41ColorRGB
 90
        0
102
RTVSPost2010PropOp41
 70
     1
102
RTVSPost2010Prop42
 90
       50
102
RTVSPost2010PropOp42
 70
     1
102
RTVSPost2010Prop43
 90
        3
102
RTVSPost2010PropOp43
 70
     1
102
RTVSPost2010Prop44ColorIndex
 90
        5
102
RTVSPost2010Prop44ColorRGB
 90
      255
102
RTVSPost2010PropOp44
 70
     1
102
RTVSPost2010Prop45
280
     0
102
RTVSPost2010PropOp45
 70
     1
102
RTVSPost2010Prop46
 90
       50
102
RTVSPost2010PropOp46
 70
     1
102
RTVSPost2010Prop47
 90
       50
102
RTVSPost2010PropOp47
 70
     1
102
RTVSPost2010Prop48
 90
       50
102
RTVSPost2010PropOp48
 70
     1
102
RTVSPost2010Prop49
280
     0
102
RTVSPost2010PropOp49
 70
     1
102
RTVSPost2010Prop50
 90
       50
102
RTVSPost2010PropOp50
 70
     1
102
RTVSPost2010Prop51ColorIndex
 90
      256
102
RTVSPost2010Prop51ColorRGB
 90
-16777216
102
RTVSPost2010PropOp51
 70
     0
102
RTVSPost2010Prop52
140
1.0
102
RTVSPost2010PropOp52
 70
     0
102
RTVSPost2010Prop53
 90
        2
102
RTVSPost2010PropOp53
 70
     1
102
RTVSPost2010Prop54
  1
strokes_ogs.tif
102
RTVSPost2010PropOp54
 70
     1
102
RTVSPost2010Prop55
280
     0
102
RTVSPost2010PropOp55
 70
     1
102
RTVSPost2010Prop56
140
1.0
102
RTVSPost2010PropOp56
 70
     1
102
RTVSPost2010Prop57
140
1.0
102
RTVSPost2010PropOp57
 70
     1
102
RTVSPropertyOp0
 70
     1
102
RTVSPropertyOp1
 70
     1
102
RTVSPropertyOp2
 70
     1
102
RTVSPropertyOp3
 70
     1
102
RTVSPropertyOp4
 70
     1
102
RTVSPropertyOp5
 70
     1
102
RTVSPropertyOp6
 70
     1
102
RTVSPropertyOp7
 70
     1
102
RTVSPropertyOp8
 70
     1
102
RTVSPropertyOp9
 70
     1
102
RTVSPropertyOp10
 70
     1
102
RTVSPropertyOp11
 70
     1
102
RTVSPropertyOp12
 70
     1
102
RTVSPropertyOp13
 70
     1
102
RTVSPropertyOp14
 70
     1
102
RTVSPropertyOp15
 70
     1
102
RTVSPropertyOp16
 70
     1
102
RTVSPropertyOp17
 70
     1
102
RTVSPropertyOp18
 70
     1
102
RTVSPropertyOp19
 70
     1
102
RTVSPropertyOp20
 70
     1
102
RTVSPropertyOp21
 70
     1
102
RTVSPropertyOp22
 70
     1
102
RTVSPropertyOp23
 70
     1
102
RTVSPropertyOp24
 70
     1
102
RTVSPropertyOp25
 70
     1
102
RTVSPropertyOp26
 70
     1
102
RTVSPropertyOp27
 70
     1
102
RTVSPropertyOp28
 70
     1
102
RTVSPropertyOp29
 70
     1
102
RTVSPropertyOp30
 70
     1
102
RTVSPropertyOp31
 70
     1
102
RTVSPropertyOp32
 70
     1
102
RTVSPropertyOp33
 70
     1
102
RTVSPropertyOp34
 70
     1
102
RTVSPropertyOp35
 70
     1
102
RTVSPropertyOp36
 70
     1
102
RTVSPropertyOp37
 70
     1
102
RTVSPropertyOp38
 70
     1
102
RTVSPropertyOp39
 70
     1
102
RTVSPropertyOp40
 70
     1
102
RTVSPropertyOp41
 70
     1
102
RTVSPropertyOp42
 70
     1
102
RTVSPropertyOp43
 70
     1
102
RTVSPropertyOp44
 70
     1
102
RTVSPropertyOp45
 70
     1
102
RTVSPropertyOp46
 70
     1
102
RTVSPropertyOp47
 70
     1
102
RTVSPropertyOp48
 70
     1
102
RTVSPropertyOp49
 70
     1
102
RTVSPropertyOp50
 70
     1
102
RTVSPropertyOp51
 70
     0
102
RTVSPropertyOp52
 70
     0
102
RTVSPropertyOp53
 70
     1
102
RTVSPropertyOp54
 70
     1
102
RTVSPropertyOp55
 70
     1
102
RTVSPropertyOp56
 70
     1
102
RTVSPropertyOp57
 70
     1
102
RTVSPropertyOp58
 70
     1
102
RTVSPropertyOp59
 70
     1
102
RTVSPropertyOp60
 70
     1
102
RTVSPropertyOp61
 70
     1
102
RTVSPropertyOp62
 70
     1
  0
XRECORD
  5
8083
102
{ACAD_REACTORS
330
8082
102
}
330
8082
100
AcDbXrecord
280
     1
102
RTVSPost2010Prop28
280
     0
102
RTVSPost2010PropOp28
 70
     1
102
RTVSPost2010Prop29
280
     1
102
RTVSPost2010PropOp29
 70
     1
102
RTVSPost2010Prop30
280
     1
102
RTVSPost2010PropOp30
 70
     1
102
RTVSPost2010Prop31
280
     0
102
RTVSPost2010PropOp31
 70
     1
102
RTVSPost2010Prop32
280
     0
102
RTVSPost2010PropOp32
 70
     1
102
RTVSPost2010Prop33
280
     0
102
RTVSPost2010PropOp33
 70
     1
102
RTVSPost2010Prop34
280
     0
102
RTVSPost2010PropOp34
 70
     1
102
RTVSPost2010Prop35
280
     0
102
RTVSPost2010PropOp35
 70
     1
102
RTVSPost2010Prop36
280
     0
102
RTVSPost2010PropOp36
 70
     1
102
RTVSPost2010Prop37
 90
       50
102
RTVSPost2010PropOp37
 70
     1
102
RTVSPost2010Prop38
140
0.0
102
RTVSPost2010PropOp38
 70
     1
102
RTVSPost2010Prop39
140
1.0
102
RTVSPost2010PropOp39
 70
     1
102
RTVSPost2010Prop40
 90
        0
102
RTVSPost2010PropOp40
 70
     1
102
RTVSPost2010Prop41ColorIndex
 90
       18
102
RTVSPost2010Prop41ColorRGB
 90
        0
102
RTVSPost2010PropOp41
 70
     1
102
RTVSPost2010Prop42
 90
       50
102
RTVSPost2010PropOp42
 70
     1
102
RTVSPost2010Prop43
 90
        3
102
RTVSPost2010PropOp43
 70
     1
102
RTVSPost2010Prop44ColorIndex
 90
        5
102
RTVSPost2010Prop44ColorRGB
 90
      255
102
RTVSPost2010PropOp44
 70
     1
102
RTVSPost2010Prop45
280
     0
102
RTVSPost2010PropOp45
 70
     1
102
RTVSPost2010Prop46
 90
       50
102
RTVSPost2010PropOp46
 70
     1
102
RTVSPost2010Prop47
 90
       50
102
RTVSPost2010PropOp47
 70
     1
102
RTVSPost2010Prop48
 90
       50
102
RTVSPost2010PropOp48
 70
     1
102
RTVSPost2010Prop49
280
     0
102
RTVSPost2010PropOp49
 70
     1
102
RTVSPost2010Prop50
 90
       50
102
RTVSPost2010PropOp50
 70
     1
102
RTVSPost2010Prop51ColorIndex
 90
      256
102
RTVSPost2010Prop51ColorRGB
 90
-16777216
102
RTVSPost2010PropOp51
 70
     0
102
RTVSPost2010Prop52
140
1.0
102
RTVSPost2010PropOp52
 70
     0
102
RTVSPost2010Prop53
 90
        2
102
RTVSPost2010PropOp53
 70
     1
102
RTVSPost2010Prop54
  1
strokes_ogs.tif
102
RTVSPost2010PropOp54
 70
     1
102
RTVSPost2010Prop55
280
     0
102
RTVSPost2010PropOp55
 70
     1
102
RTVSPost2010Prop56
140
1.0
102
RTVSPost2010PropOp56
 70
     1
102
RTVSPost2010Prop57
140
1.0
102
RTVSPost2010PropOp57
 70
     1
102
RTVSPropertyOp0
 70
     1
102
RTVSPropertyOp1
 70
     1
102
RTVSPropertyOp2
 70
     1
102
RTVSPropertyOp3
 70
     1
102
RTVSPropertyOp4
 70
     1
102
RTVSPropertyOp5
 70
     1
102
RTVSPropertyOp6
 70
     1
102
RTVSPropertyOp7
 70
     1
102
RTVSPropertyOp8
 70
     1
102
RTVSPropertyOp9
 70
     1
102
RTVSPropertyOp10
 70
     1
102
RTVSPropertyOp11
 70
     1
102
RTVSPropertyOp12
 70
     1
102
RTVSPropertyOp13
 70
     1
102
RTVSPropertyOp14
 70
     1
102
RTVSPropertyOp15
 70
     1
102
RTVSPropertyOp16
 70
     1
102
RTVSPropertyOp17
 70
     1
102
RTVSPropertyOp18
 70
     1
102
RTVSPropertyOp19
 70
     1
102
RTVSPropertyOp20
 70
     1
102
RTVSPropertyOp21
 70
     1
102
RTVSPropertyOp22
 70
     1
102
RTVSPropertyOp23
 70
     1
102
RTVSPropertyOp24
 70
     1
102
RTVSPropertyOp25
 70
     1
102
RTVSPropertyOp26
 70
     1
102
RTVSPropertyOp27
 70
     1
102
RTVSPropertyOp28
 70
     1
102
RTVSPropertyOp29
 70
     1
102
RTVSPropertyOp30
 70
     1
102
RTVSPropertyOp31
 70
     1
102
RTVSPropertyOp32
 70
     1
102
RTVSPropertyOp33
 70
     1
102
RTVSPropertyOp34
 70
     1
102
RTVSPropertyOp35
 70
     1
102
RTVSPropertyOp36
 70
     1
102
RTVSPropertyOp37
 70
     1
102
RTVSPropertyOp38
 70
     1
102
RTVSPropertyOp39
 70
     1
102
RTVSPropertyOp40
 70
     1
102
RTVSPropertyOp41
 70
     1
102
RTVSPropertyOp42
 70
     1
102
RTVSPropertyOp43
 70
     1
102
RTVSPropertyOp44
 70
     1
102
RTVSPropertyOp45
 70
     1
102
RTVSPropertyOp46
 70
     1
102
RTVSPropertyOp47
 70
     1
102
RTVSPropertyOp48
 70
     1
102
RTVSPropertyOp49
 70
     1
102
RTVSPropertyOp50
 70
     1
102
RTVSPropertyOp51
 70
     0
102
RTVSPropertyOp52
 70
     0
102
RTVSPropertyOp53
 70
     1
102
RTVSPropertyOp54
 70
     1
102
RTVSPropertyOp55
 70
     1
102
RTVSPropertyOp56
 70
     1
102
RTVSPropertyOp57
 70
     1
102
RTVSPropertyOp58
 70
     1
102
RTVSPropertyOp59
 70
     1
102
RTVSPropertyOp60
 70
     1
102
RTVSPropertyOp61
 70
     1
102
RTVSPropertyOp62
 70
     1
  0
XRECORD
  5
808B
102
{ACAD_REACTORS
330
808A
102
}
330
808A
100
AcDbXrecord
280
     1
102
RTVSPost2010Prop28
280
     0
102
RTVSPost2010PropOp28
 70
     1
102
RTVSPost2010Prop29
280
     1
102
RTVSPost2010PropOp29
 70
     1
102
RTVSPost2010Prop30
280
     1
102
RTVSPost2010PropOp30
 70
     1
102
RTVSPost2010Prop31
280
     0
102
RTVSPost2010PropOp31
 70
     1
102
RTVSPost2010Prop32
280
     0
102
RTVSPost2010PropOp32
 70
     1
102
RTVSPost2010Prop33
280
     0
102
RTVSPost2010PropOp33
 70
     1
102
RTVSPost2010Prop34
280
     0
102
RTVSPost2010PropOp34
 70
     1
102
RTVSPost2010Prop35
280
     0
102
RTVSPost2010PropOp35
 70
     1
102
RTVSPost2010Prop36
280
     0
102
RTVSPost2010PropOp36
 70
     1
102
RTVSPost2010Prop37
 90
       50
102
RTVSPost2010PropOp37
 70
     1
102
RTVSPost2010Prop38
140
0.0
102
RTVSPost2010PropOp38
 70
     1
102
RTVSPost2010Prop39
140
1.0
102
RTVSPost2010PropOp39
 70
     1
102
RTVSPost2010Prop40
 90
        0
102
RTVSPost2010PropOp40
 70
     1
102
RTVSPost2010Prop41ColorIndex
 90
       18
102
RTVSPost2010Prop41ColorRGB
 90
        0
102
RTVSPost2010PropOp41
 70
     1
102
RTVSPost2010Prop42
 90
       50
102
RTVSPost2010PropOp42
 70
     1
102
RTVSPost2010Prop43
 90
        3
102
RTVSPost2010PropOp43
 70
     1
102
RTVSPost2010Prop44ColorIndex
 90
        5
102
RTVSPost2010Prop44ColorRGB
 90
      255
102
RTVSPost2010PropOp44
 70
     1
102
RTVSPost2010Prop45
280
     0
102
RTVSPost2010PropOp45
 70
     1
102
RTVSPost2010Prop46
 90
       50
102
RTVSPost2010PropOp46
 70
     1
102
RTVSPost2010Prop47
 90
       50
102
RTVSPost2010PropOp47
 70
     1
102
RTVSPost2010Prop48
 90
       50
102
RTVSPost2010PropOp48
 70
     1
102
RTVSPost2010Prop49
280
     0
102
RTVSPost2010PropOp49
 70
     1
102
RTVSPost2010Prop50
 90
       50
102
RTVSPost2010PropOp50
 70
     1
102
RTVSPost2010Prop51ColorIndex
 90
      256
102
RTVSPost2010Prop51ColorRGB
 90
-16777216
102
RTVSPost2010PropOp51
 70
     0
102
RTVSPost2010Prop52
140
1.0
102
RTVSPost2010PropOp52
 70
     0
102
RTVSPost2010Prop53
 90
        2
102
RTVSPost2010PropOp53
 70
     1
102
RTVSPost2010Prop54
  1
strokes_ogs.tif
102
RTVSPost2010PropOp54
 70
     1
102
RTVSPost2010Prop55
280
     0
102
RTVSPost2010PropOp55
 70
     1
102
RTVSPost2010Prop56
140
1.0
102
RTVSPost2010PropOp56
 70
     1
102
RTVSPost2010Prop57
140
1.0
102
RTVSPost2010PropOp57
 70
     1
102
RTVSPropertyOp0
 70
     1
102
RTVSPropertyOp1
 70
     1
102
RTVSPropertyOp2
 70
     1
102
RTVSPropertyOp3
 70
     1
102
RTVSPropertyOp4
 70
     1
102
RTVSPropertyOp5
 70
     1
102
RTVSPropertyOp6
 70
     1
102
RTVSPropertyOp7
 70
     1
102
RTVSPropertyOp8
 70
     1
102
RTVSPropertyOp9
 70
     1
102
RTVSPropertyOp10
 70
     1
102
RTVSPropertyOp11
 70
     1
102
RTVSPropertyOp12
 70
     1
102
RTVSPropertyOp13
 70
     1
102
RTVSPropertyOp14
 70
     1
102
RTVSPropertyOp15
 70
     1
102
RTVSPropertyOp16
 70
     1
102
RTVSPropertyOp17
 70
     1
102
RTVSPropertyOp18
 70
     1
102
RTVSPropertyOp19
 70
     1
102
RTVSPropertyOp20
 70
     1
102
RTVSPropertyOp21
 70
     1
102
RTVSPropertyOp22
 70
     1
102
RTVSPropertyOp23
 70
     1
102
RTVSPropertyOp24
 70
     1
102
RTVSPropertyOp25
 70
     1
102
RTVSPropertyOp26
 70
     1
102
RTVSPropertyOp27
 70
     1
102
RTVSPropertyOp28
 70
     1
102
RTVSPropertyOp29
 70
     1
102
RTVSPropertyOp30
 70
     1
102
RTVSPropertyOp31
 70
     1
102
RTVSPropertyOp32
 70
     1
102
RTVSPropertyOp33
 70
     1
102
RTVSPropertyOp34
 70
     1
102
RTVSPropertyOp35
 70
     1
102
RTVSPropertyOp36
 70
     1
102
RTVSPropertyOp37
 70
     1
102
RTVSPropertyOp38
 70
     1
102
RTVSPropertyOp39
 70
     1
102
RTVSPropertyOp40
 70
     1
102
RTVSPropertyOp41
 70
     1
102
RTVSPropertyOp42
 70
     1
102
RTVSPropertyOp43
 70
     1
102
RTVSPropertyOp44
 70
     1
102
RTVSPropertyOp45
 70
     1
102
RTVSPropertyOp46
 70
     1
102
RTVSPropertyOp47
 70
     1
102
RTVSPropertyOp48
 70
     1
102
RTVSPropertyOp49
 70
     1
102
RTVSPropertyOp50
 70
     1
102
RTVSPropertyOp51
 70
     0
102
RTVSPropertyOp52
 70
     0
102
RTVSPropertyOp53
 70
     1
102
RTVSPropertyOp54
 70
     1
102
RTVSPropertyOp55
 70
     1
102
RTVSPropertyOp56
 70
     1
102
RTVSPropertyOp57
 70
     1
102
RTVSPropertyOp58
 70
     1
102
RTVSPropertyOp59
 70
     1
102
RTVSPropertyOp60
 70
     1
102
RTVSPropertyOp61
 70
     1
102
RTVSPropertyOp62
 70
     1
  0
ENDSEC
  0
EOF
